LANA - キロクノカケラ (sasakure.UK Framework Remix) -
TOMOSUKE×Jazzin'park

ADVANCED

Level: 6
BPM: 200
Notes: 453

1
口口口口 |----|
口①口口 |----|
口口②口 |----|
口口口口 |①-②-|
2
口口口口 |①---|
③口口② |②-③-|
口口口口 |----|
口①口口 |----|
3
口口口口 |----|
口口①口 |----|
口②口口 |----|
口口口口 |①-②-|
4
口口口口 |①---|
②口口③ |②-③-|
④口口⑤ |--④-|
口口①口 |⑤---|
5
口口口口 |----|
口①口口 |----|
口口②口 |----|
口口口口 |①-②-|
6
口口口口 |①---|
③口口② |②-③-|
口口口口 |----|
口①口口 |----|
7
口口口口 |----|
口口口口 |----|
口口①口 |----|
口口口口 |①---|
8
①口口① |①---|
④②②④ |--②-|
口③③口 |--③-|
口口口口 |--④-|
9
口口口口 |--①-|
口口口口 |----|
①口口① |----|
口口口口 |----|
10
口①①口 |①---|
口②②口 |②---|
③口口④ |③-④-|
⑤口口⑥ |⑤-⑥-|
11
口口口口 |----|
口口口口 |----|
口口口口 |----|
口口口① |--①-|
12
口①①口 |①---|
②口口② |--②-|
口③④口 |--③-|
口⑤口口 |④-⑤-|
13
口口①口 |--①-|
口口口口 |----|
③口口口 |----|
口口口② |②-③-|
14
口口口口 |①---|
口口口① |--②-|
口②②④ |----|
③口口口 |③-④-|
15
口口口口 |①---|
①口口口 |--②-|
口②②口 |----|
口口口③ |--③-|
16
口①②口 |①-②-|
③口口③ |--③-|
④口口④ |--④-|
口⑤⑤口 |--⑤-|
17
口口口口 |--①-|
口①②口 |②---|
口口口口 |----|
口口口口 |----|
18
④口口口 |①-②-|
口③口口 |③-④-|
口口②口 |----|
口口口① |----|
19
口口口口 |①---|
①口口① |--②-|
②口口② |----|
口口口口 |----|
20
口口口④ |①-②-|
口口③口 |③-④-|
口②口口 |----|
①口口口 |----|
21
口口口口 |①---|
①口口① |--②-|
②口口② |----|
口口口口 |----|
22
④口口口 |①-②-|
口③口口 |③-④-|
口口②口 |----|
口口口① |----|
23
口口口口 |①---|
①口口① |--②-|
②口口② |----|
口口口口 |----|
24
口口口④ |①-②-|
口口③口 |③-④-|
口②口口 |----|
①口口口 |----|
25
口口口口 |①---|
①③口① |--②-|
②口④② |----|
口口口口 |③-④-|
26
口③②口 |①---|
口口口口 |②-③-|
口口口口 |----|
口①口口 |----|
27
口口口口 |①---|
①口③① |--②-|
②④口② |----|
口口口口 |③-④-|
28
口②③口 |①---|
口④⑤口 |②-③-|
口口口口 |--④-|
口口①口 |⑤---|
29
口口口口 |①---|
①③口① |--②-|
②口④② |----|
口口口口 |③-④-|
30
口③②口 |①---|
口口口口 |②-③-|
口口口口 |----|
口①口口 |----|
31
口口口口 |①---|
①口口① |--②-|
②口③② |----|
口口口口 |③---|
32
①口口① |①---|
④②②④ |--②-|
口③③口 |--③-|
口口口口 |--④-|
33
口口口口 |--①-|
口口口口 |----|
①口口① |----|
口口口口 |----|
34
口①①口 |①---|
口②②口 |②---|
口③④口 |③-④-|
口口⑤口 |--⑤-|
35
口口口口 |①---|
①口口① |--②-|
②口口② |----|
口口口③ |--③-|
36
口①①口 |①---|
②口口② |--②-|
口③④口 |--③-|
口⑤口口 |④-⑤-|
37
口口①口 |--①-|
口口口口 |----|
③口口口 |----|
口口口② |②-③-|
38
口口口口 |①---|
口口口① |--②-|
口②②④ |----|
③口口口 |③-④-|
39
口口口口 |①---|
①口口口 |--②-|
口②②口 |----|
口口口口 |----|
40
口①②口 |①-②-|
③口口③ |--③-|
④口口④ |--④-|
口⑤⑤口 |--⑤-|
41
口口口口 |--①-|
口①②口 |②---|
口口口口 |----|
口口口口 |----|
42
①口口② |①---|
口口口口 |②---|
口口口口 |③---|
③口口④ |④---|
43
口口口口 |①---|
口①②口 |②---|
口③④口 |③---|
口口口口 |④---|
44
③口口② |①---|
口口口口 |②---|
口口口口 |③---|
①口口④ |④---|
45
口口口口 |①---|
口③②口 |②---|
口①④口 |③---|
口口口口 |④---|
46
口口口口 |①---|
口口口口 |②---|
③口口④ |③---|
口①②口 |④---|
47
口③④口 |①---|
①口口② |②---|
口口口口 |③---|
口口口口 |④---|
48
口口口口 |①---|
口口口口 |②---|
口③④口 |③---|
①口口② |④---|
49
③口口④ |①---|
口①②口 |②---|
口口口口 |③---|
口口口口 |④---|
50
口①①口 |①---|
口②口口 |--②-|
口口口口
口口口口

口口⑤口
口口口口
口口③口 |③-④-|
④⑤口口 |--⑤-|
51
口口口口 |--①-|
②口口① |--②-|
①口口② |----|
口口口口 |----|
52
口口口口 |①---|
口③②⑤ |--②-|
⑤①①口 |③-④-|
口口口④ |--⑤-|
53
口②口口 |--①-|
①③④口 |--②-|
口⑤口① |--③-|
口口②口 |④-⑤-|
54
口⑥⑤口 |①-②-|
④口口③ |③-④-|
⑧口口⑦ |⑤-⑥-|
②口口① |⑦-⑧-|
55
口口口口 |--①-|
口②①口 |②---|
口口口口 |----|
口口口口 |----|
56
②口口① |①---|
③口口③ |--②-|
口口口口 |----|
①口口② |--③-|
57
口③口口 |--①-|
口口②口 |②-③-|
口①口口 |----|
口口口口 |----|
58
口④④口 |①---|
②口口② |②---|
③口口③ |③---|
口①①口 |④---|
59
①口口① |①---|
③口口口 |----|
口②②口 |②---|
③口口口 |③---|
60
口口口口 |①---|
口②口① |----|
口口口口 |----|
口口口① |②---|
61
②口①口 |①---|
口口口③ |----|
口口口口 |②---|
口口口口 |③---|
62
口③口口 |①---|
口口口口 |----|
①口口口 |②---|
口口②口 |③---|
63
口口口口 |①---|
口口口① |②---|
②口口口 |③---|
④口口③ |④---|
64
口②口口 |①---|
口口①口 |----|
口口口口 |----|
口口口口 |②---|
65
口口口口 |①---|
口口口口 |----|
口口①口
口口口口

②口口②
口③口口
口口④口 |②---|
口口口口 |③-④-|
66
口③口口 |①---|
口口④口 |②---|
②⑤口口 |③-④-|
口①⑥口 |⑤-⑥-|
67
口口口口 |①---|
口口③② |②---|
口③口口 |----|
①口口口 |③---|
68
③口口③ |①---|
④①口④ |②---|
口口①口 |③---|
②口口② |④---|
69
口口③③ |①---|
④④口口 |②---|
①口口① |③---|
口②口口 |④---|
70
③③口口 |①---|
口口口口 |②---|
口①①口 |----|
口口②口 |③---|
71
口口④④ |①---|
口①①口 |②---|
口口②② |③---|
③口口口 |④---|
72
口口口口 |①---|
口①①口 |②---|
口③③口 |③---|
④口口② |④---|
73
口口口口 |①---|
②口口③ |②---|
④口口口 |③---|
口①①口 |④---|
74
口④④口 |①---|
口②②口 |②---|
口③③口 |③---|
口口口① |④---|
75
①口口① |①---|
④口口口 |②---|
②③③口 |③---|
④口口口 |④---|
76
口口口口 |①---|
口③口① |②---|
口口口② |----|
口口口① |③---|
77
③口①口 |①---|
口口口④ |②---|
口口口口 |③---|
口口②口 |④---|
78
口④口口 |①---|
口口口口 |②---|
①口口口 |③---|
口②③口 |④---|
79
口口口口 |①---|
口口口① |②---|
②口口口 |③---|
④口口③ |④---|
80
口③口口 |①---|
口口①口 |②---|
口②口口 |----|
口口口口 |③---|
81
口口口口 |①---|
口口口口 |②---|
口口①口
口口口②

③口口③
口④口口
口口⑤口 |③---|
口口口口 |④-⑤-|
82
口③口口 |①---|
口口④口 |②---|
②⑤口口 |③-④-|
口①⑥口 |⑤-⑥-|
83
口口口口 |①---|
口口③② |②---|
口③口口 |----|
①口口口 |③---|
84
③口口③ |①---|
④①口④ |②---|
口口①口 |③---|
②口口② |④---|
85
口口③③ |①---|
④④口口 |②---|
①口口① |③---|
口②口口 |④---|
86
③③口口 |①---|
口口口口 |②---|
口①①口 |----|
口口②口 |③---|
87
口口④④ |①---|
口①①口 |②---|
口口②② |③---|
③口口口 |④---|
88
口口口口 |①---|
口①①口 |②---|
口③③口 |③---|
④口口② |④---|
89
口口口口 |①---|
②口口③ |②---|
④口口口 |③---|
口①①口 |④---|
90
口口口口 |①---|
口①①口 |--②-|
口②②口 |----|
口③③口 |③---|
91
①口口口 |----|
口口口② |----|
口口口口 |①---|
口口口口 |②---|
92
口口口口 |①---|
口①①口 |--②-|
口②②口 |----|
口③③口 |③---|
93
口口口口 |----|
①口口① |①---|
①口口① |----|
口口口口 |----|
94
口口口口 |①---|
口①①口 |--②-|
口②②口 |----|
口③③口 |③---|
95
口口口口 |----|
口口口口 |----|
口口口口 |----|
口口口口 |----|
96
口口口口 |①---|
③口口③ |--②-|
②口口② |----|
①口口① |③---|

不確定度: 0

最終更新:2014年08月02日 00:09