キセキ


BASIC

Level: 2
BPM: 94
Notes: 162

1
口口口口 |----|
口口口口 |----|
口口口口 |----|
口①口口 |①---|
2
口口口口 |①---|
口②口口 |----|
口口口口 |②---|
口口①口 |----|
3
口口口口 |①---|
口口①口 |②---|
口口②口 |③---|
口口③口 |----|
4
口口口口 |①---|
口口口口 |----|
口口②口 |②---|
口①口口 |----|
5
口口口口 |①---|
口口口① |②---|
口口④② |③---|
口口口③ |④---|
6
口口口口 |①---|
口口②口 |----|
口①口口 |②---|
口口口口 |----|
7
①口口口 |①---|
②口口口 |②---|
③口口口 |③---|
口口口口 |----|
8
口口口口 |①---|
口口口口 |----|
口②②口 |②---|
口①①口 |----|
9
①口口① |①---|
口口口口 |----|
口口口口 |----|
口②口口 |②---|
10
口口口口 |①---|
口口口口 |----|
口②②口 |②---|
口口①口 |----|
11
①口口① |①---|
②口口② |②---|
③口口③ |③---|
口口口口 |----|
12
口口口口 |①---|
口③③口 |②---|
口②②口 |③---|
口①①口 |----|
13
口口口口 |①---|
①口口② |----|
口口口口 |②---|
口③口口 |③---|
14
口口口口 |①---|
口口口口 |----|
口②②口 |②---|
口口①口 |----|
15
①口口① |①---|
②口口② |②---|
③口口③ |③---|
口口口口 |----|
16
口口口口 |①---|
口③③口 |②---|
口②②口 |③---|
口①①口 |----|
17
口口口口 |①---|
①②③④ |②---|
口口口口 |③---|
口口口口 |④---|
18
①①②② |①---|
口口口口 |----|
口口口口 |②---|
口口口口 |----|
19
口口口口 |①---|
口口口口 |----|
口口口口 |②---|
①①②② |----|
20
口口口口 |①---|
口口口口 |----|
①①②② |②---|
口口口口 |----|
21
③②②③ |①---|
口①①口 |②---|
口④口口 |③---|
口口口口 |④---|
22
口口口口 |①---|
口口口口 |----|
口口①口
口口口口

②口口②
口口口口
口口③口 |②---|
口口口口 |③---|
23
口口口口 |①---|
②口口② |----|
口①口口 |②---|
口③口口 |③---|
24
口口口口 |①---|
口口口口 |----|
口②口口 |②---|
口口①口 |----|
25
口口口口 |①---|
口口③口 |②---|
口②口口 |③---|
口口①口 |----|
26
①①②② |①---|
口口口口 |----|
口口口口 |②---|
口口口口 |----|
27
口口口口 |①---|
口口口口 |----|
口口口口 |②---|
①①②② |----|
28
口口口口 |①---|
口口口口 |----|
①①②② |②---|
口口口口 |----|
29
③②②③ |①---|
口①①口 |②---|
口④口口 |③---|
口口口口 |④---|
30
口口口口 |①---|
口口口口 |----|
口口①口
口口口口

②口口②
口口口口
口口③口 |②---|
口口口口 |③---|
31
口口口口 |①---|
②口口② |----|
口①口口 |②---|
口③口口 |③---|
32
口口口口 |①---|
口口口口 |----|
口②口口 |②---|
口口①口 |----|
33
③口口③ |①---|
②口口② |②---|
①口口① |③---|
口口口口 |----|
34
口口口口 |----|
口口口口 |----|
口口口口 |----|
口口口口 |----|
35
口口口口 |①---|
①②③口 |②---|
口口口口 |③---|
口口口口 |----|
36
口口口口 |----|
口口口口 |----|
口口口① |①---|
口口口口 |----|
37
口口口口 |----|
口口口口 |----|
口口口口 |①---|
②口口① |②---|
38
口口口口 |①---|
④口口③ |②---|
②口口① |③---|
口口口口 |④---|
39
口口口① |①---|
口口口口 |②---|
口口口口 |③---|
口②③口 |----|
40
口口口口 |①---|
口①②口 |----|
口口③口 |②---|
口口口口 |③---|
41
口口口口 |①---|
口口口口 |----|
口口口口 |②---|
口②①口 |----|
42
口口口口 |①---|
口口口② |----|
口口①③ |②---|
口口口口 |③---|
43
口口口口 |①---|
口口口口 |②---|
口③②口 |③---|
口口口① |----|
44
②口口口 |①---|
③口①口 |----|
口口口口 |②---|
口口口口 |③---|
45
口口口口 |①---|
口口口口 |----|
①口口口 |②---|
口②②口 |----|
46
②口口② |①---|
口口口口 |----|
口①①口 |②---|
口口口口 |----|

不確定度: 0

最終更新:2014年08月02日 00:08