キセキ


ADVANCED

Level: 5
BPM: 94
Notes: 331

1
口口口口 |----|
口口口口 |----|
口口口口 |----|
①②口口 |①-②-|
2
口⑥口⑦ |①---|
口④⑤口 |②-③-|
口②③口 |④-⑤-|
口口①口 |⑥-⑦-|
3
口口口口 |①-②-|
①口口② |③-④-|
③口口④ |⑤---|
⑤口⑥口 |--⑥-|
4
口③④口 |①-②-|
口⑤②口 |③-④-|
口①口口 |⑤---|
⑥口口⑦ |⑥-⑦-|
5
口①口口 |①-②-|
口口②口 |③-④-|
口③口口
口口④口

口口口口
口口口口
口口口口 |⑤---|
口⑤⑦⑥ |⑥-⑦-|
6
口⑤④口 |①---|
口⑦⑥口 |②-③-|
口③②口 |④-⑤-|
口①口口 |⑥-⑦-|
7
②口口① |①-②-|
口口口口 |③-④-|
④⑥口③ |⑤---|
口口口⑤ |--⑥-|
8
⑤口口⑤ |①-②-|
⑥②①⑥ |③-④-|
④口③口 |⑤---|
口口口口 |⑥---|
9
口口口口 |①---|
口口口口 |----|
①口口① |----|
口②③口 |②-③-|
10
②口口② |①---|
③口口③ |②---|
④①口④ |③---|
口⑤口口 |④-⑤-|
11
口④口③ |①-②-|
口②口口 |③-④-|
口口①口 |----|
口口⑤口 |--⑤-|
12
③口④口 |①-②-|
口⑤②口 |③-④-|
口①⑥口 |--⑤-|
口⑦口口 |⑥-⑦-|
13
④口口⑤ |①-②-|
口口口③ |③-④-|
②口口口 |⑤---|
口⑥⑦① |⑥-⑦-|
14
②口口② |①---|
③口口③ |②---|
④①口④ |③---|
口⑤口口 |④-⑤-|
15
口④口③ |①-②-|
口②口口 |③-④-|
口口①口 |----|
口口⑤口 |--⑤-|
16
③口④口 |①-②-|
口⑤②口 |③-④-|
口①⑥口 |--⑤-|
口⑦口口 |⑥-⑦-|
17
④口口口 |①-②-|
口⑦⑦③ |③-④-|
②⑥⑥口 |⑤-⑥-|
口⑤⑤① |⑦---|
18
②⑤⑤① |①---|
②④④① |②---|
口③③口 |③-④-|
口口口口 |⑤---|
19
口口口口 |①---|
②⑤⑤① |②---|
②④④① |③-④-|
口③③口 |⑤---|
20
口口口口 |①---|
口⑤⑤口 |②---|
②④④① |③-④-|
②③③① |⑤---|
21
①口口① |①---|
②口口② |②---|
③⑤口③ |③---|
口口口④ |④-⑤-|
22
②②③③ |①---|
口口①口 |②---|
口口⑤口 |③---|
④口口口 |④-⑤-|
23
口口口口 |①---|
口①②② |②---|
③③口口 |③---|
口口⑤④ |④-⑤-|
24
口口口口 |①---|
口⑤口口 |②-③-|
②③④口 |④---|
口①口口 |⑤---|
25
③口口③ |①---|
口口口口 |②---|
②口口② |③---|
①口口① |----|
26
②⑤⑤① |①---|
②④④① |②---|
口③③口 |③-④-|
口口口口 |⑤---|
27
口口口口 |①---|
②⑤⑤① |②---|
②④④① |③-④-|
口③③口 |⑤---|
28
口口口口 |①---|
口⑤⑤口 |②---|
②④④① |③-④-|
②③③① |⑤---|
29
①口口① |①---|
②口口② |②---|
③⑤口③ |③---|
口口口④ |④-⑤-|
30
②②③③ |①---|
口口①口 |②---|
口口⑤口 |③---|
④口口口 |④-⑤-|
31
口口口口 |①---|
口①②② |②---|
③③口口 |③---|
口口⑤④ |④-⑤-|
32
口口口口 |①---|
口⑤口口 |②-③-|
②③④口 |④---|
口①口口 |⑤---|
33
③口口③ |①---|
口口口口 |②---|
②口口② |③---|
①口口① |----|
34
口口口口 |----|
口①口口 |----|
口口口口 |----|
口口口口 |--①-|
35
④口口⑤ |①-②-|
口口③口 |③-④-|
口②①口 |⑤---|
口口口口 |----|
36
口口口口 |----|
口口①口 |--①-|
口口口口 |②---|
口②口口 |----|
37
①口口② |----|
③口口④ |----|
口口口口 |①-②-|
口口口口 |③-④-|
38
口⑤⑥口 |①-②-|
口⑦⑧口 |③-④-|
①口口② |⑤-⑥-|
③口口④ |⑦-⑧-|
39
口口口口 |①-②-|
口口口口 |③-④-|
口①②口
③④口口

口口口口
口口口口
口⑥⑦口 |⑤---|
口口⑤口 |⑥-⑦-|
40
口③口④ |①-②-|
⑤①②⑥ |③-④-|
⑦口口⑧ |⑤-⑥-|
口口口口 |⑦-⑧-|
41
口⑤⑥口 |①---|
口口④口 |--②-|
口③口口 |③-④-|
①口②口 |⑤-⑥-|
42
口④口口 |①---|
口①⑤口 |②-③-|
口⑥口口 |④-⑤-|
②口⑦③ |⑥-⑦-|
43
口口口口 |①---|
口口口口 |②-③-|
口口口口
口①③②

口口口口
口口口口
口⑥⑤口 |④---|
口④口口 |⑤-⑥-|
44
⑥②①⑤ |①-②-|
口④③口 |③-④-|
⑧口口⑦ |⑤-⑥-|
口口口口 |⑦-⑧-|
45
口口口口 |①---|
口④③口 |--②-|
⑥②⑤口 |③-④-|
口口口① |⑤-⑥-|
46
①口口① |①---|
②口口② |②---|
③口口③ |③---|
口口口口 |----|

不確定度: 0

最終更新:2014年08月02日 00:06