人生は素晴らしい物語。(Dear Japan Remix)
ハジ→

BASIC

Level: 2
BPM: 107
Notes: 135

1
口口口口 |----|
口口口口 |----|
口口口口 |----|
口口口口 |----|
2
口口口口 |①---|
口口口口 |----|
口口口口 |②---|
口②①口 |----|
3
口④③口 |①---|
口口②口 |②---|
口口①口 |③---|
口口口口 |④---|
4
口②①口 |①---|
口口口口 |----|
口口口口 |②---|
口口口口 |----|
5
口口口口 |①---|
口口①口 |②---|
口口②口 |③---|
口口③口 |----|
6
口口口口 |①---|
口口口口 |----|
口口口口 |②---|
口①②口 |----|
7
口③④口 |①---|
口②口口 |②---|
口①口口 |③---|
口口口口 |④---|
8
口①②口 |①---|
口口口口 |----|
口口口口 |②---|
口口口口 |----|
9
口口口口 |①---|
口①口口 |②---|
口②口口 |③---|
口③④口 |④---|
10
口口口口 |①---|
口①①口 |----|
口口口口 |----|
口口口口 |----|
11
口口口口 |----|
口②口口 |----|
口口①口 |①---|
口口口口 |②---|
12
口①①口 |①---|
口口口口 |----|
口口口口 |----|
口口口口 |----|
13
口口口口 |----|
口口口口 |----|
口口口口 |----|
口口口口 |----|
14
口口口口 |①---|
口口口口 |----|
口口②口 |②---|
口口①口 |----|
15
口口②口 |①---|
口口①口 |----|
口口口口 |②---|
口口口口 |----|
16
口①口口 |①---|
口②口口 |----|
口口口口 |②---|
口口口口 |----|
17
口口口口 |①---|
口口口口 |----|
口①口口 |②---|
口②口口 |----|
18
口口口口 |①---|
口口②口 |----|
口口①口 |②---|
口口口口 |----|
19
口口口口 |①---|
口①口口 |----|
口②口口 |②---|
口口口口 |----|
20
口口口口 |①---|
口口②口 |----|
口口①口 |②---|
口口口口 |----|
21
口口口口 |①---|
口①口口 |----|
口②口口 |②---|
口口口口 |----|
22
口口④③ |①---|
口口口② |②---|
口口口① |③---|
口口口口 |④---|
23
②①口口 |①---|
③口口口 |②---|
④口口口 |③---|
口口口口 |④---|
24
口口口口 |①---|
口口口口 |②---|
口口口口 |③---|
①②③④ |④---|
25
口口④③ |①---|
口口口② |②---|
口口口① |③---|
口口口口 |④---|
26
口①口口 |①---|
口②口口 |②---|
口③口口 |③---|
口④口口 |④---|
27
口口④口 |①---|
口口③口 |②---|
口口②口 |③---|
口口①口 |④---|
28
口①口口 |①---|
口②口口 |②---|
口③口口 |③---|
口④口口 |④---|
29
口口口口 |①---|
口③③口 |②---|
口口②口 |③---|
口口①口 |----|
30
口口口口 |①---|
口口口口 |----|
口①①口 |----|
口口口口 |----|
31
口口口口 |①---|
口①①口 |----|
口口口口 |----|
口口口口 |----|
32
口口口口 |①---|
口①①口 |----|
口口口口 |----|
口口口口 |----|
33
口①①口 |①---|
口口口口 |----|
口口口口 |----|
口口口口 |----|
34
口口口口 |①---|
口②①口 |②---|
口③④口 |③---|
口口口口 |④---|
35
口口口口 |①---|
口②①口 |②---|
口③④口 |③---|
口口口口 |④---|
36
口口口口 |①---|
口②①口 |②---|
口③④口 |③---|
口口口口 |④---|
37
口口口口 |①---|
口②①口 |②---|
口③③口 |③---|
口口口口 |----|
38
口口口口 |①---|
口口口口 |----|
口口口口 |②---|
口②①口 |----|
39
口口口口 |①---|
口口②口 |②---|
口口①口
口口口口

口③③口
口④④口
口口口口 |③---|
口口口口 |④---|
40
口②①口 |①---|
口口口口 |----|
口口口口 |②---|
口口口口 |----|
41
口口口口 |①---|
口口①口 |②---|
口口②口 |③---|
口③③口 |----|
42
口口口口 |①---|
口口口口 |----|
口口口口 |②---|
口①②口 |----|
43
口口口口 |①---|
口②口口 |②---|
口①口口
口口口口

口③③口
口④④口
口口口口 |③---|
口口口口 |④---|
44
口①②口 |①---|
口口口口 |----|
口口口口 |②---|
口口口口 |----|
45
口口口口 |①---|
口①口口 |②---|
口②口口 |③---|
口③④口 |④---|
46
口口口口 |①---|
口①①口 |----|
口口口口 |----|
口口口口 |----|
47
口口口口 |----|
口口②口 |----|
口①口口 |①---|
口口口口 |②---|
48
口①①口 |①---|
口口口口 |----|
口口口口 |----|
口口口口 |----|

不確定度: 0

最終更新:2014年08月02日 00:01