人生は素晴らしい物語。(Dear Japan Remix)
ハジ→

ADVANCED

Level: 4
BPM: 107
Notes: 331

1
口口口口 |----|
口口口口 |----|
口口口口 |----|
口口口口 |----|
2
⑧口口⑦ |①-②-|
⑥口口⑤ |③-④-|
④口口③ |⑤-⑥-|
②口口① |⑦-⑧-|
3
③④⑤③ |①---|
口②②口 |②---|
口①①口 |③---|
口口口口 |④-⑤-|
4
②口口② |①---|
口口口口 |----|
①口口① |②---|
口口口口 |----|
5
口①①口 |①---|
口②②口 |②---|
③口口③ |③---|
口口口口 |----|
6
⑧口口⑦ |①-②-|
⑥口口⑤ |③-④-|
口④③口 |⑤-⑥-|
口②①口 |⑦-⑧-|
7
口①①口 |①---|
口②②口 |②---|
口③③口 |③---|
④口口④ |④---|
8
口口口口 |①---|
口口口口 |----|
②口口② |②---|
口①①口 |----|
9
①④④② |①---|
口①②口 |②---|
口口口口 |③---|
口③③口 |④---|
10
口口口口 |①---|
①口口① |----|
口①①口 |----|
口口口口 |----|
11
口④④口 |----|
口口口口 |--①-|
口口口口 |②--③|
②③③① |--④-|
12
②口口① |①-②-|
口②①口 |----|
口口口口 |----|
口口口口 |----|
13
口口口口 |----|
口口口口 |----|
口口口口 |----|
口口口口 |----|
14
口口⑤④ |--①-|
⑥口⑥③ |②-③-|
口②⑦② |④-⑤-|
口口口① |⑥-⑦-|
15
⑥⑤口口 |①-②-|
⑦④⑦口 |③-④-|
⑧③口③ |⑤-⑥-|
口②①口 |⑦-⑧-|
16
口⑤⑥口 |①-②-|
⑦④⑦口 |③-④-|
口③⑧③ |⑤-⑥-|
①②口口 |⑦-⑧-|
17
口口口口 |①-②-|
口口口口 |③---|
口③口③ |----|
口口①② |----|
18
④⑤口口 |--①-|
③⑥口⑥ |②-③-|
②⑦②口 |④-⑤-|
①口口口 |⑥-⑦-|
19
口口⑤⑥ |①-②-|
口⑦④⑦ |③-④-|
③口③⑧ |⑤-⑥-|
口①②口 |⑦-⑧-|
20
口⑥⑤口 |①-②-|
口⑦④⑦ |③-④-|
③⑧③口 |⑤-⑥-|
口口②① |⑦-⑧-|
21
⑤⑥口口 |①-②-|
④⑦口⑦ |③-④-|
③口③口 |⑤-⑥-|
②①口口 |⑦---|
22
口口口⑦ |--①-|
⑥⑥口⑤ |②-③-|
口④口③ |④-⑤-|
②②口① |⑥-⑦-|
23
口①口口 |①-②-|
③③口② |③-④-|
口⑤口④ |⑤-⑥-|
⑦⑦口⑥ |⑦---|
24
①口②② |--①-|
③口④口 |②-③-|
⑤口⑥⑥ |④-⑤-|
⑦口口口 |⑥-⑦-|
25
⑥口⑦⑦ |①-②-|
④口⑤口 |③-④-|
②口③③ |⑤-⑥-|
口口①口 |⑦---|
26
口⑧⑦口 |①-②-|
口⑤⑥口 |③-④-|
口④③口 |⑤-⑥-|
口①②口 |⑦-⑧-|
27
④口口② |①-②-|
口⑤⑥口 |③-④-|
③⑦⑧① |⑤-⑥-|
口口口口 |⑦-⑧-|
28
④口口⑤ |--①-|
⑥口口③ |②-③-|
②口口⑦ |④-⑤-|
口口口① |⑥-⑦-|
29
⑤⑥口⑤ |①-②-|
口口④口 |③-④-|
口③口口 |⑤---|
①口口② |--⑥-|
30
⑥口①② |①-②③|
口口口③ |-④⑤-|
口口④口 |----|
口口⑤口 |--⑥-|
31
口①②口 |①-②③|
口口③口 |-④⑤-|
口④口口
口⑤口口

口⑦口口
口⑥口口
口口口口 |----|
口口口口 |--⑥⑦|
32
⑧口①② |①-②③|
⑦口④③ |-④⑤-|
口口⑤口 |⑥---|
口口⑥口 |--⑦⑧|
33
口①②口 |①-②③|
口④③口 |-④⑤-|
口⑤口口 |⑥---|
口⑥口口 |----|
34
④口⑤口 |--①-|
⑥口③口 |②-③-|
②口⑦口 |④-⑤-|
口口①口 |⑥-⑦-|
35
口⑤口⑥ |①-②-|
口⑦口④ |③-④-|
口③口⑧ |⑤-⑥-|
①口口② |⑦-⑧-|
36
①口口② |--①-|
③口口④ |②-③-|
⑤口口⑥ |④-⑤-|
⑦口口口 |⑥-⑦-|
37
⑥口口⑥ |①-②-|
④④⑤⑤ |③-④-|
口②③口 |⑤-⑥-|
口口①口 |----|
38
⑦口口⑧ |①-②-|
⑤口口⑥ |③-④-|
③口口④ |⑤-⑥-|
①口口② |⑦-⑧-|
39
③⑤④③ |①---|
口②②口 |②---|
口①①口 |③---|
口口口口 |④-⑤-|
40
②口口② |①---|
口口口口 |----|
①口口① |②---|
口口口口 |----|
41
口①①口 |①---|
口②②口 |②---|
③口口③ |③---|
口口口口 |----|
42
⑦口口⑧ |①-②-|
⑤口口⑥ |③-④-|
口③④口 |⑤-⑥-|
口①②口 |⑦-⑧-|
43
口①①口 |①---|
口②②口 |②---|
口③③口 |③---|
④口口④ |④---|
44
口口口口 |①---|
口口口口 |----|
②口口② |②---|
口①①口 |----|
45
②④④① |①---|
口②①口 |②---|
口口口口 |③---|
口③③口 |④---|
46
口口口口 |①---|
①口口① |----|
口①①口 |----|
口口口口 |----|
47
口④④口 |----|
口口口口 |--①-|
口口口口 |②--③|
①③③② |--④-|
48
①口口② |①-②-|
口①②口 |----|
口口口口 |----|
口口口口 |----|

不確定度: 0

最終更新:2014年08月02日 00:01