Red Goose
Mutsuhiko Izumi

EXTREME

Level: 10
BPM: 200
Notes: 891

1
口口口口 |----|
口口口口 |----|
①②③口 |--①-|
口口口口 |②-③-|
2
口②口口 |①---|
口③口口 |--②-|
口④口① |③-④-|
口⑤口口 |⑤---|
3
口口口① |①---|
口②③④ |----|
口⑤⑥⑦ |②-③-④-|
口口口口 |⑤-⑥-⑦-|
4
②③④⑤ |①---|
①口口口 |--②-|
口口口口 |③-④-|
⑥⑦⑧口 |⑤⑥⑦⑧|
5
口口口口 |①---|
口②③④ |----|
口⑤⑥⑦ |②-③-④-|
口口口① |⑤-⑥-⑦-|
6
②③口口 |①---|
①④⑤⑥ |--②-|
口口口口 |③-④-|
口口口口 |⑤-⑥-|
7
口口口① |①---|
口口口口 |--②-|
口口③② |③-④-|
⑥⑤④口 |⑤-⑥-|
8
②口口③ |①---|
口口口口 |②---|
①口口口 |③---|
口口口④ |④---|
9
口口口口 |①---|
口②口口 |----|
口③口口 |----|
①口口口 |--②③|
10
口口口口 |①---|
口口口口 |----|
口口口口 |----|
口①口口 |----|
11
①②③⑦ |①-②-|
④⑤⑥④ |③-④-|
口口口口 |--⑤-|
口口口口 |⑥-⑦-|
12
口口口口 |①-②-|
口口口口 |③-④-|
④⑥⑤④ |--⑤-|
⑦③②① |⑥-⑦-|
13
⑦③②① |①-②-|
④⑥⑤④ |③-④-|
口口口口 |--⑤-|
口口口口 |⑥-⑦-|
14
口口口口 |①-②-|
口口口口 |③-④-|
④⑤⑥④ |--⑤-|
①②③⑦ |⑥-⑦-|
15
①②③⑦ |①-②-|
④⑤⑥④ |③-④-|
口口口口 |--⑤-|
口口口口 |⑥-⑦-|
16
口口口口 |①-②-|
口口口口 |③-④-|
④⑥⑤④ |--⑤-|
⑦③②① |⑥-⑦-|
17
⑦③②① |①-②-|
④⑥⑤④ |③-④-|
口口口口 |--⑤-|
口口口口 |⑥-⑦-|
18
口口口口 |①-②-|
口口口口 |③-④-|
④⑤⑥④ |--⑤-|
①②③⑦ |⑥-⑦-|
19
①②③④ |①②③④|
⑧⑦⑥⑤ |⑤⑥⑦⑧|
⑨⑩⑪⑫ |⑨⑩⑪⑫|
⑯⑮⑭⑬ |⑬⑭⑮⑯|
20
①②③④ |①②③④|
⑧⑦⑥⑤ |⑤⑥⑦⑧|
⑨⑩⑪⑫ |⑨⑩⑪⑫|
⑯⑮⑭⑬ |⑬⑭⑮⑯|
21
①②③④ |①-②-|
口⑤口口 |③-④-|
口⑥口口 |--⑤-|
口⑦口口 |⑥-⑦-|
22
①口③⑦ |①-②-|
口口口⑥ |③-④-|
②口④⑤ |--⑤-|
口口口口 |⑥-⑦-|
23
口⑤口口 |①-②-|
①⑥③口 |③-④-|
口⑦口口 |--⑤-|
②口④口 |⑥-⑦-|
24
口口口⑤ |①-②-|
口口口⑥ |③-④-|
口口口⑦ |--⑤-|
①②③④ |⑥-⑦-|
25
⑤口口口 |①-②-|
⑥②③口 |③-④-|
⑦①④口 |--⑤-|
口口口口 |⑥-⑦-|
26
口①②口 |①-②-|
口口口⑦ |③-④-|
口口口⑥ |--⑤-|
口③④⑤ |⑥-⑦-|
27
口②口④ |①-②-|
口⑦口口 |③-④-|
①⑥③口 |--⑤-|
口⑤口口 |⑥-⑦-|
28
①口口③ |①-②-|
口口⑤口 |③-④-|
口口⑥口 |--⑤-|
②口⑦④ |⑥-⑦-|
29
①②③④ |①-②-|
口⑤口口 |③-④-|
口⑥口口 |--⑤-|
口⑦口口 |⑥-⑦-|
30
①口③⑦ |①-②-|
口口口⑥ |③-④-|
②口④⑤ |--⑤-|
口口口口 |⑥-⑦-|
31
口⑤口口 |①-②-|
①⑥③口 |③-④-|
口⑦口口 |--⑤-|
②口④口 |⑥-⑦-|
32
口口口⑤ |①-②-|
口口口⑥ |③-④-|
口口口⑦ |--⑤-|
①②③④ |⑥-⑦-|
33
⑤口口口 |①-②-|
⑥②③口 |③-④-|
⑦①④口 |--⑤-|
口口口口 |⑥-⑦-|
34
口①②口 |①-②-|
口口口⑦ |③-④-|
口口口⑥ |--⑤-|
口③④⑤ |⑥-⑦-|
35
口②口④ |①-②-|
口⑦口口 |③-④-|
①⑥③口 |--⑤-|
口⑤口口 |⑥-⑦-|
36
①口口③ |①-②-|
口口⑤口 |③-④-|
口口⑥口 |--⑤-|
②口⑦④ |⑥-⑦-|
37
①③口口 |①-②-|
②④口口 |③-④-|
⑤⑥⑦口 |⑤⑥⑦-|
⑧⑨⑩口 |⑧⑨⑩-|
38
口口①③ |①-②-|
口口②④ |③-④-|
口⑤⑥⑦ |⑤⑥⑦-|
口⑧⑨⑩ |⑧⑨⑩-|
39
①④口口 |①-②-|
⑤⑧②③ |③-④-|
⑥⑨口口 |⑤⑥⑦-|
⑦⑩口口 |⑧⑨⑩-|
40
⑨⑩①② |①②③④|
⑪⑫③④ |⑤⑥⑦⑧|
⑬⑭⑤⑥ |⑨⑩⑪⑫|
⑮口⑦⑧ |⑬⑭⑮-|
41
口口①口 |①-②-|
⑤⑥⑦③ |③-④-|
口口②口 |⑤⑥⑦-|
⑧⑨⑩④ |⑧⑨⑩-|
42
①⑤②口 |①-②-|
口⑥口口 |③-④-|
③⑦④口 |⑤⑥⑦-|
⑧⑨⑩⑪ |⑧⑨⑩⑪|
43
口口①② |①-②-|
口口③④ |③-④-|
⑤⑥口口 |⑤-⑥-|
⑦⑧口口 |⑦-⑧-|
44
①②口口 |①-②-|
③④口口 |③-④-|
口口⑤⑥ |⑤-⑥-|
口口⑦⑧ |⑦-⑧-|
45
①③⑥④ |①②③④|
⑦⑤⑭② |⑤⑥⑦⑧|
⑬⑪⑧⑩ |⑨⑩⑪⑫|
⑨⑮⑫⑯ |⑬⑭⑮⑯|
46
①③⑥④ |①②③④|
⑦⑤⑭② |⑤⑥⑦⑧|
⑬⑪⑧⑩ |⑨⑩⑪⑫|
⑨⑮⑫⑯ |⑬⑭⑮⑯|
47
①②⑦③ |①②-③|
④⑤口口 |-④⑤-|
口口⑥口 |⑥-⑦-|
口⑧⑨⑩ |⑧⑨⑩-|
48
①②⑦③ |①②-③|
口④⑤口 |-④⑤-|
口口⑥口 |⑥-⑦-|
⑩⑨⑧口 |⑧⑨⑩-|
49
②①⑦口 |①②-③|
口口⑤④ |-④⑤-|
③口⑥口 |⑥-⑦-|
口⑧⑨⑩ |⑧⑨⑩-|
50
②①口口 |①②-③|
⑤口④⑦ |-④-⑤|
③口⑥口 |-⑥-⑦|
口口⑧⑨ |-⑧⑨-|
51
①②⑦③ |①②-③|
口④⑤口 |-④⑤-|
口口⑥口 |⑥-⑦-|
⑩⑨⑧口 |⑧⑨⑩-|
52
②①⑦口 |①②-③|
口口⑤④ |-④⑤-|
③口⑥口 |⑥-⑦-|
口⑧⑨⑩ |⑧⑨⑩-|
53
②①口口 |①②-③|
⑤口④⑦ |-④-⑤|
③口⑥口 |-⑥-⑦|
口口⑧⑨ |-⑧⑨-|
54
①②⑦⑧ |①②-③|
口③⑨⑩ |-④⑤⑥|
④⑤⑪⑫ |⑦⑧⑨⑩|
口⑥⑬⑭ |⑪⑫⑬⑭|
55
①②⑦口 |①②-③|
④⑤口口 |-④⑤-|
③⑥口口 |⑥-⑦-|
口⑧⑨⑩ |⑧⑨⑩-|
56
①②⑦口 |①②-③|
④⑤口口 |-④⑤-|
③⑥口口 |⑥-⑦-|
⑩⑨⑧口 |⑧⑨⑩-|
57
②①口口 |①②-③|
口⑦⑤④ |-④⑤-|
⑥口口③ |⑥-⑦-|
口⑧⑨⑩ |⑧⑨⑩-|
58
①②④⑥ |①②-③|
口口口口 |-④-⑤|
口③⑤⑦ |-⑥-⑦|
口口⑧⑨ |-⑧⑨-|
59
①②⑦口 |①②-③|
④⑤口口 |-④⑤-|
③⑥口口 |⑥-⑦-|
⑩⑨⑧口 |⑧⑨⑩-|
60
②①口口 |①②-③|
口⑦⑤④ |-④⑤-|
⑥口口③ |⑥-⑦-|
口⑧⑨⑩ |⑧⑨⑩-|
61
①②④⑥ |①②-③|
口口口口 |-④-⑤|
口③⑤⑦ |-⑥-⑦|
口口⑧⑨ |-⑧⑨-|
62
①②⑦⑧ |①②-③|
口③⑨⑩ |-④⑤⑥|
④⑤⑪⑫ |⑦⑧⑨⑩|
口⑥⑬⑭ |⑪⑫⑬⑭|
63
①③口口 |①-②-|
②④口口 |③-④-|
⑤⑥⑦口 |⑤⑥⑦-|
⑧⑨⑩口 |⑧⑨⑩-|
64
口口①③ |①-②-|
口口②④ |③-④-|
口⑤⑥⑦ |⑤⑥⑦-|
口⑧⑨⑩ |⑧⑨⑩-|
65
①④口口 |①-②-|
⑤⑧②③ |③-④-|
⑥⑨口口 |⑤⑥⑦-|
⑦⑩口口 |⑧⑨⑩-|
66
⑨⑩①② |①②③④|
⑪⑫③④ |⑤⑥⑦⑧|
⑬⑭⑤⑥ |⑨⑩⑪⑫|
⑮口⑦⑧ |⑬⑭⑮-|
67
口口①口 |①-②-|
⑤⑥⑦③ |③-④-|
口口②口 |⑤⑥⑦-|
⑧⑨⑩④ |⑧⑨⑩-|
68
①⑤②口 |①-②-|
口⑥口口 |③-④-|
③⑦④口 |⑤⑥⑦-|
⑧⑨⑩⑪ |⑧⑨⑩⑪|
69
口口①② |①-②-|
口口③④ |③-④-|
⑤⑥口口 |⑤-⑥-|
⑦⑧口口 |⑦-⑧-|
70
①②口口 |①-②-|
③④口口 |③-④-|
口口⑤⑥ |⑤-⑥-|
口口⑦⑧ |⑦-⑧-|
71
①③⑥④ |①②③④|
⑦⑤⑭② |⑤⑥⑦⑧|
⑬⑪⑧⑩ |⑨⑩⑪⑫|
⑨⑮⑫⑯ |⑬⑭⑮⑯|
72
①③⑥④ |①②③④|
⑦⑤⑭② |⑤⑥⑦⑧|
⑬⑪⑧⑩ |⑨⑩⑪⑫|
⑨⑮⑫⑯ |⑬⑭⑮⑯|
73
①②③④ |①-②-|
口⑤口口 |③-④-|
口⑥口口 |--⑤-|
口⑦口口 |⑥-⑦-|
74
①口③⑦ |①-②-|
口口口⑥ |③-④-|
②口④⑤ |--⑤-|
口口口口 |⑥-⑦-|
75
①⑤口口 |①-②-|
①⑥③口 |③-④-|
②⑦口口 |--⑤-|
②口④口 |⑥-⑦-|
76
口口口⑤ |①-②-|
口口口⑥ |③-④-|
口口口⑦ |--⑤-|
①②③④ |⑥-⑦-|
77
口口口口 |①-②-|
口②③口 |③-④-|
①①④口
口口口口

⑤口口口
⑥口口口
⑦口口口 |--⑤-|
口口口口 |⑥-⑦-|
78
口①②口 |①-②-|
口口口⑦ |③-④-|
口口口⑥ |--⑤-|
口③④⑤ |⑥-⑦-|
79
口②②④ |①-②-|
①⑦口口 |③-④-|
①⑥③口 |--⑤-|
口⑤口口 |⑥-⑦-|
80
①口口③ |①-②-|
口口⑤口 |③-④-|
口口⑥口 |--⑤-|
②口⑦④ |⑥-⑦-|
81
①②③④ |①-②-|
①⑥口③ |③-④-|
口⑦口⑤ |⑤-⑥-|
口⑧口口 |⑦-⑧-|
82
①①③⑧ |①-②-|
口⑤③⑦ |③-④-|
②口④⑥ |⑤-⑥-|
口口口口 |⑦-⑧-|
83
①⑥③口 |①-②-|
①⑦③口 |③-④-|
口⑧口口 |⑤-⑥-|
②口④⑤ |⑦-⑧-|
84
⑤口口⑥ |①-②-|
口口口⑦ |③-④-|
①口③⑧ |⑤-⑥-|
①②③④ |⑦-⑧-|
85
口口③口 |①-②-|
口②③口 |③-④-|
①①④口
口口口口

⑥口口口
⑦口口口
⑧口口口 |⑤-⑥-|
口口口⑤ |⑦-⑧-|
86
口①②口 |①-②-|
口①口⑧ |③-④-|
口③口⑦ |⑤-⑥-|
⑤③④⑥ |⑦-⑧-|
87
口②⑤④ |①-②-|
①⑧③口 |③-④-|
①⑦③口 |⑤-⑥-|
口⑥口口 |⑦-⑧-|
88
①①口③ |①-②-|
⑤口⑥③ |③-④-|
口口⑦口 |⑤-⑥-|
②口⑧④ |⑦-⑧-|
89
①②③④ |①-②-|
口⑥⑤口 |③-④-|
①⑦口口 |⑤-⑥-|
口⑧口口 |⑦-⑧-|
90
①口③⑦ |①-②-|
口口口⑥ |③-④-|
②口④⑤ |--⑤-|
口口口口 |⑥-⑦-|
91
口⑥⑤口 |①-②-|
①⑦③口 |③-④-|
①⑧口口 |⑤-⑥-|
②口④口 |⑦-⑧-|
92
口口⑤⑥ |①-②-|
①口口⑦ |③-④-|
口口口⑧ |⑤-⑥-|
①②③④ |⑦-⑧-|
93
⑤口口口 |①-②-|
⑥②③口 |③-④-|
⑦①④口 |--⑤-|
口口口口 |⑥-⑦-|
94
口①②口 |①-②-|
口口口⑦ |③-④-|
口口口⑥ |--⑤-|
口③④⑤ |⑥-⑦-|
95
口②口④ |①-②-|
口⑦口口 |③-④-|
①⑥③口 |--⑤-|
口⑤口口 |⑥-⑦-|
96
⑥②⑥④ |①-②-|
口口口口 |③-④-|
口口口口 |--⑤-|
①⑤③⑤ |⑥---|
97
⑬⑭⑮⑯ |①②③④|
①②③④ |⑤⑥⑦⑧|
⑧⑦⑥⑤ |⑨⑩⑪⑫|
⑨⑩⑪⑫ |⑬⑭⑮⑯|
98
⑬⑭⑮⑯ |①②③④|
①②③④ |⑤⑥⑦⑧|
⑧⑦⑥⑤ |⑨⑩⑪⑫|
⑨⑩⑪⑫ |⑬⑭⑮⑯|
99
口口口口 |----|
①①口口 |----|
口①①口 |①---|
口口①口 |----|


不确定度: 0

最終更新:2012年11月08日 18:30