ジャパンパン~日本全国地元化計画~
C&K

BASIC

Level: 3
BPM: 130
Notes: 264

1
口口口口 |----|
口口口口 |----|
口口口口 |----|
口口口口 |----|
2
口口口口 |①---|
口口口口 |----|
口②②口 |②---|
口①①口 |----|
3
口②②口 |①---|
口①①口 |----|
口口口口 |②---|
口口口口 |----|
4
口口口口 |①---|
口口口口 |----|
②口口② |②---|
①口口① |----|
5
②口口② |①---|
①口口① |----|
口口口口 |②---|
口口口口 |----|
6
口口口口 |①---|
口口口口 |----|
口②口② |②---|
①口①口 |----|
7
口②口② |①---|
①口①口 |----|
口口口口 |②---|
口口口口 |----|
8
口口口口 |①---|
口口口口 |----|
②口②口 |②---|
口①口① |----|
9
②口②口 |①---|
口①口① |----|
口口口口 |②---|
口口口口 |----|
10
口口口口 |①---|
④①①口 |②---|
口②②口 |③---|
口③③口 |④---|
11
口②①口 |①---|
口④③口 |②---|
口口口口 |③---|
口口口口 |④---|
12
②口口② |①---|
口口口口 |②---|
口①①口 |----|
口口口口 |----|
13
口口口口 |--①-|
①口口① |--②-|
②口口② |--③-|
③口口③ |----|
14
口口口口 |①---|
④①①口 |②---|
口②②口 |③---|
口③③口 |④---|
15
口②①口 |①---|
口④③口 |②---|
口口口口 |③---|
口口口口 |④---|
16
②口口② |①---|
口口口口 |②---|
口①①口 |----|
口口口口 |----|
17
口口口口 |--①-|
①口口① |--②-|
②口口② |--③-|
③口口③ |----|
18
④口口④ |①---|
口③口口 |②---|
口口②口 |③---|
口①口口 |④---|
19
④口口④ |①---|
口口③口 |②---|
口②口口 |③---|
口口①口 |④---|
20
口口口口 |①---|
①①②② |----|
口口口口 |②---|
口口口口 |----|
21
口口口口 |①---|
口口口口 |----|
①①②② |②---|
口口口口 |----|
22
口口口口 |①---|
口口口口 |②---|
③口口④ |③---|
①口口② |④---|
23
③口口④ |①---|
①口口② |②---|
口口口口 |③---|
口口口口 |④---|
24
口口口口 |①---|
口口口口 |②---|
口③④口 |③---|
口①②口 |④---|
25
口③④口 |①---|
口①②口 |②---|
口口口口 |③---|
口口口口 |④---|
26
①②口口 |①---|
口口口口 |----|
口口口口 |②---|
口口口口 |----|
27
口口口口 |①---|
口②②① |----|
口②②口 |②---|
口口口口 |----|
28
口口口口 |①---|
口口口口 |----|
口口②① |②---|
口口口口 |----|
29
口口口口 |①---|
口口口口 |----|
口口口口 |②---|
②①口口 |----|
30
口①②口 |①---|
口口口口 |----|
口口口口 |②---|
口口口口 |----|
31
口口口口 |①---|
口②②① |----|
口②②口 |②---|
口口口口 |----|
32
口口口口 |①---|
口口口口 |----|
口口口口 |②---|
口口②① |----|
33
口口口口 |①---|
口口口口 |----|
②①口口 |②---|
口口口口 |----|
34
口口口口 |①---|
④③②① |②---|
口口口口 |③---|
口口口口 |④---|
35
口口口口 |----|
口口口口 |----|
口口口口 |----|
口口口口 |----|
36
口④口口 |①---|
口③口口 |②---|
口②口口 |③---|
口①口口 |④---|
37
口口口口 |----|
口口口口 |----|
口口口口 |----|
口口口口 |----|
38
口④口口 |①---|
口口口① |②---|
③口口口 |③---|
口口②口 |④---|
39
口口口口 |----|
口口口口 |----|
口口口口 |----|
口口口口 |----|
40
口口口口 |①---|
①①②② |----|
口口口口 |②---|
口口口口 |----|
41
口口口口 |①---|
口口口口 |----|
口②②口 |②---|
口①①口 |----|
42
口口口① |①---|
口口②口 |②---|
口③口口 |③---|
④口口口 |④---|
43
口口口口 |①---|
口口口口 |②---|
①口口④ |③---|
口②③口 |④---|
44
①②③④ |①---|
口口口口 |②---|
口口口口 |③---|
口口口口 |④---|
45
口口口口 |①---|
口①②口 |②---|
口③④口 |③---|
口口口口 |④---|
46
③口口③ |①---|
口口口口 |--②-|
②口口② |----|
①口口① |③---|
47
口口口口 |①---|
口①②口 |②---|
口③④口 |③---|
口口口口 |④---|
48
④④口口 |①---|
③口口口 |②---|
②口口口 |③---|
①口口口 |④---|
49
口口④④ |①---|
口口口③ |②---|
口口口② |③---|
口口口① |④---|
50
口口口口 |①---|
④①①口 |②---|
口②②口 |③---|
口③③口 |④---|
51
口②①口 |①---|
口④③口 |②---|
口口口口 |③---|
口口口口 |④---|
52
②口口② |①---|
口口口口 |②---|
口①①口 |----|
口口口口 |----|
53
口口口口 |--①-|
①口口① |--②-|
②口口② |--③-|
③口口③ |----|
54
口口口口 |①---|
④①①口 |②---|
口②②口 |③---|
口③③口 |④---|
55
口②①口 |①---|
口④③口 |②---|
口口口口 |③---|
口口口口 |④---|
56
②口口② |①---|
口口口口 |②---|
口①①口 |----|
口口口口 |----|
57
口口口口 |--①-|
①口口① |--②-|
②口口② |--③-|
③口口③ |----|
58
④口口④ |①---|
口③口口 |②---|
口口②口 |③---|
口①口口 |④---|
59
④口口④ |①---|
口口③口 |②---|
口②口口 |③---|
口口①口 |④---|
60
口口口口 |①---|
①①②② |----|
口口口口 |②---|
口口口口 |----|
61
口口口口 |①---|
口口口口 |----|
①①②② |②---|
口口口口 |----|
62
口口口口 |①---|
口口口口 |②---|
③口口④ |③---|
①口口② |④---|
63
③口口④ |①---|
①口口② |②---|
口口口口 |③---|
口口口口 |④---|
64
口口口口 |①---|
口口口口 |②---|
口③④口 |③---|
口①②口 |④---|
65
口③④口 |①---|
口①②口 |②---|
口口口口 |③---|
口口口口 |④---|
66
口口口口 |①---|
①口口① |----|
口口口口 |----|
口口口口 |----|

不確定度: 0

最終更新:2014年08月02日 00:00