ジャパンパン~日本全国地元化計画~
C&K

ADVANCED

Level: 6
BPM: 130
Notes: 451

1
口口口口 |----|
口口口口 |----|
口口口口 |----|
口口口口 |----|
2
口③②① |①--②|
口口口口 |--③-|
口口口口 |④--⑤|
口⑤④口 |----|
3
口口口口 |①--②|
①②③口 |--③-|
口口口口 |④--⑤|
口④⑤口 |----|
4
口③②① |①--②|
口口口口 |--③-|
口口口口 |④--⑤|
口⑤④口 |----|
5
口口口口 |①--②|
①②③④ |--③-|
口⑤口口 |-④--|
口口口口 |⑤---|
6
口③②① |①--②|
口口口口 |--③-|
口口口口 |④--⑤|
口⑤④口 |----|
7
口口口口 |①--②|
①②③口 |--③-|
口口口口 |④--⑤|
口④⑤口 |----|
8
口③②① |①--②|
口口口口 |--③-|
口口口口 |④--⑤|
口⑤④口 |----|
9
口口口口 |①--②|
①②③④ |--③-|
⑥口口口 |-④--|
口⑤⑤口 |⑤-⑥-|
10
口④①① |①---|
②②⑤口 |②---|
口口③③ |③---|
口口口口 |④-⑤-|
11
①口⑤口 |①-②-|
口⑥口② |③-④-|
③口⑦口 |⑤-⑥-|
口⑧口④ |⑦-⑧-|
12
口①口口 |①---|
口口②口 |②---|
口①口口 |----|
口口②口 |----|
13
口口口口 |--①-|
①口口① |--②-|
②④口② |--③-|
③口口③ |--④-|
14
口④①① |①---|
②②⑤口 |②---|
口口③③ |③---|
口口口口 |④-⑤-|
15
①口⑤口 |①-②-|
口⑥口② |③-④-|
③口⑦口 |⑤-⑥-|
口⑧口④ |⑦-⑧-|
16
口①口口 |①---|
口口②口 |②---|
口①口口 |----|
口口②口 |----|
17
口④④口 |--①-|
①口口① |--②-|
②口口② |--③-|
③口口③ |④---|
18
口⑦⑦口 |①-②-|
②口口① |③-④-|
④口口③ |⑤-⑥-|
⑥口口⑤ |⑦---|
19
⑦口口⑦ |①-②-|
口②①口 |③-④-|
口④③口 |⑤-⑥-|
口⑥⑤口 |⑦---|
20
口口④④ |①---|
口口①① |②-③-|
②③口口 |④---|
⑤⑥口口 |⑤-⑥-|
21
口口④④ |①---|
⑤⑤①① |②-③-|
②③⑥⑥ |④---|
口口口口 |⑤-⑥-|
22
口口口口 |①---|
口口口口 |----|
口口口口 |----|
①①口口 |----|
23
口口口口 |①--②|
①②③口 |--③-|
口口口口 |④--⑤|
口④⑤口 |----|
24
口③②① |①--②|
口口口口 |--③-|
口口口口 |④--⑤|
口⑤④口 |----|
25
⑤口口⑤ |①--②|
①②③口 |--③-|
⑥口口口 |④--⑤|
口④④口 |--⑥-|
26
口④口口 |①--②|
口②①口 |--③-|
口口口口 |④---|
⑤口③口 |--⑤-|
27
④口口⑤ |①②-③|
口口③口 |-④-⑤|
口②①口
口口口口

口口口口
口口⑦口
口⑧口口 |--⑥-|
⑥口口口 |⑦-⑧-|
28
③⑥口② |①--②|
口⑤④口 |--③-|
口④⑤口 |④--⑤|
②口①③ |--⑥-|
29
口口口口 |①-②-|
口⑥⑦① |③-④-|
②口⑤口 |⑤-⑥⑦|
口④⑧③ |--⑧-|
30
①口④口 |①--②|
口③口口 |--③-|
口口口② |④---|
口口⑤口 |--⑤-|
31
⑤口口口 |①②-③|
③口口④ |-④-⑤|
口①②口
口口口口

口口口口
口口口口
口口⑧口 |--⑥-|
口⑦口⑥ |⑦-⑧-|
32
口口口② |①--②|
③①口口 |--③-|
口口⑤口 |④--⑤|
口④口口 |----|
33
①⑤口口 |①-②-|
口口⑥② |③-④-|
③⑦口口 |⑤-⑥-|
口口口④ |⑦---|
34
口口口口 |①-②-|
⑧口口① |③-④-|
⑦口口② |⑤-⑥-|
⑥⑤④③ |⑦-⑧-|
35
口②①口 |①-②-|
⑥④③⑤ |③-④-|
口⑧⑦口 |⑤-⑥-|
口口口口 |⑦-⑧-|
36
⑧口口⑦ |①-②-|
⑥口口⑤ |③-④-|
④口口③ |⑤-⑥-|
②口口① |⑦-⑧-|
37
口②①口 |①-②-|
⑥④③⑤ |③-④-|
口⑧⑦口 |⑤-⑥-|
口口口口 |⑦-⑧-|
38
口口③⑤ |①-②-|
口⑥口口 |③-④-|
②口⑦① |⑤-⑥-|
⑧④口口 |⑦-⑧-|
39
口②①口 |①-②-|
⑥④③⑤ |③-④-|
口口口口 |⑤-⑥-|
⑧⑧⑦⑦ |⑦-⑧-|
40
口①①口 |①---|
口②②口 |②---|
⑤③③口 |③---|
口口口④ |④-⑤-|
41
③②①③ |①--②|
口①②口 |--③-|
口⑦口口 |④-⑤-|
④⑤⑥④ |⑥-⑦-|
42
口口②① |①-②-|
口⑤④③ |③-④-|
⑧⑦⑥口 |⑤-⑥-|
口口口口 |⑦-⑧-|
43
口口口口 |①-②-|
口口口口 |③-④-|
口⑦⑥④ |⑤-⑥-|
②①⑤③ |⑦---|
44
①口口口 |①---|
⑥口②口 |②-③-|
口③④⑤ |④-⑤-|
口口口口 |--⑥-|
45
口①②口 |①---|
口⑤④③ |②-③-|
口口⑥口 |④-⑤-|
口口口口 |⑥---|
46
③③④④ |①--②|
⑥口口⑥ |--③-|
口⑤⑤口 |-④--|
①①②② |⑤-⑥-|
47
口口口口 |-①--|
口①①口 |②-③-|
②口口③
口口口口

口口口口
口⑥⑥口
口⑤⑤口 |④--⑤|
口④④口 |--⑥-|
48
口口口① |--①-|
口⑥⑥口 |②-③-|
②⑥⑥③ |④-⑤-|
④口口⑤ |⑥---|
49
口①②口 |①-②-|
③口口④ |③-④-|
⑦口口口 |⑤-⑥-|
口⑤⑥口 |--⑦-|
50
口④①① |①---|
②②⑤口 |②---|
口口③③ |③---|
口口口口 |④-⑤-|
51
①口⑤口 |①-②-|
口⑥口② |③-④-|
③口⑦口 |⑤-⑥-|
口⑧口④ |⑦-⑧-|
52
口①口口 |①---|
口口②口 |②---|
口①口口 |----|
口口②口 |----|
53
口口口口 |--①-|
①口口① |--②-|
②④口② |--③-|
③口口③ |--④-|
54
口④①① |①---|
②②⑤口 |②---|
口口③③ |③---|
口口口口 |④-⑤-|
55
①口⑤口 |①-②-|
口⑥口② |③-④-|
③口⑦口 |⑤-⑥-|
口⑧口④ |⑦-⑧-|
56
口①口口 |①---|
口口②口 |②---|
口①口口 |----|
口口②口 |----|
57
口④④口 |--①-|
①口口① |--②-|
②口口② |--③-|
③口口③ |④---|
58
口⑦⑦口 |①-②-|
②口口① |③-④-|
④口口③ |⑤-⑥-|
⑥口口⑤ |⑦---|
59
⑦口口⑦ |①-②-|
口②①口 |③-④-|
口④③口 |⑤-⑥-|
口⑥⑤口 |⑦---|
60
口口④④ |①---|
口口①① |②-③-|
②③口口 |④---|
⑤⑥口口 |⑤-⑥-|
61
口口④④ |①---|
⑤⑤①① |②-③-|
②③⑥⑥ |④---|
口口口口 |⑤-⑥-|
62
口口口口 |①---|
口口口口 |----|
口口口口 |----|
①①口口 |----|
63
口口口口 |①--②|
①②③口 |--③-|
口口口口 |④--⑤|
口④⑤口 |----|
64
口③②① |①--②|
口口口口 |--③-|
口口口口 |④--⑤|
口⑤④口 |----|
65
⑤口口⑤ |①--②|
①②③口 |--③-|
口口口口 |④--⑤|
口④④口 |----|
66
口口口口 |①---|
口口口口 |----|
口①①口 |----|
口口口口 |----|

不確定度: 0

最終更新:2014年08月01日 23:59