Gott
Hommarju

BASIC

Level: 5
BPM: 195
Notes: 386

1
口口口口 |----|
口口口口 |----|
口口口口 |----|
口口口口 |----|
2
口口口口 |----|
口口口口 |----|
口口口口 |----|
口口口口 |----|
3
口口口口 |----|
口口口口 |----|
口口口口 |----|
口口口口 |----|
4
口④③② |①---|
口口口口 |②---|
口①口口 |③---|
口口口口 |④---|
5
口口口口 |----|
口口口口 |①---|
①②③口 |②---|
口口口口 |③---|
6
口口口口 |①---|
④③②① |②---|
口口口口 |③---|
口口口口 |④---|
7
口口口口 |----|
口口口口 |①---|
口口口口 |②---|
口①②③ |③---|
8
口④③② |①---|
口口口口 |②---|
口①口口 |③---|
口口口口 |④---|
9
口口口口 |----|
口口口口 |①---|
①②③口 |②---|
口口口口 |③---|
10
口口口口 |①---|
④③②① |②---|
口口口口 |③---|
口口口口 |④---|
11
口口口口 |----|
口口口口 |①---|
口口口口 |②---|
口①②③ |③---|
12
②口口② |①---|
③口口③ |②---|
④①①④ |③---|
口口口口 |④---|
13
口口口口 |----|
口③③口 |①---|
口②②口 |②---|
口①①口 |③---|
14
①口口① |①---|
②口口② |②---|
③口口③ |③---|
④口口④ |④---|
15
口①①口 |----|
②③③② |①---|
口口口口 |②---|
口口口口 |③---|
16
②口口② |①---|
③口口③ |②---|
④①①④ |③---|
口口口口 |④---|
17
口口口口 |----|
口①①口 |①---|
口②②口 |②---|
口③③口 |③---|
18
①口口① |①---|
②口口② |②---|
③口口③ |③---|
④口口④ |④---|
19
口②②口 |----|
口口口口 |①---|
口①①口 |②---|
口③③口 |③---|
20
口口口口 |①---|
口①①口 |----|
口口口口 |----|
口口口口 |----|
21
口口口口 |----|
口口口口 |----|
口口口口 |----|
口口口口 |----|
22
①口口口 |①---|
②口口口 |②---|
③口口口 |③---|
④口口口 |④---|
23
口口口① |①---|
口口口② |②---|
口口口③ |③---|
口口口④ |④---|
24
口①口口 |①---|
口②口口 |②---|
口③口口 |③---|
口④口口 |④---|
25
口口①口 |①---|
口口②口 |②---|
口口③口 |③---|
口口④口 |④---|
26
④口口口 |①---|
③口口口 |②---|
②口口口 |③---|
①口口口 |④---|
27
口口口④ |①---|
口口口③ |②---|
口口口② |③---|
口口口① |④---|
28
口④口口 |①---|
口③口口 |②---|
口②口口 |③---|
口①口口 |④---|
29
口口④口 |①---|
口口③口 |②---|
口口②口 |③---|
口口①口 |④---|
30
口口口口 |①---|
口口口口 |②---|
口口口口 |③---|
①②③④ |④---|
31
口口口口 |①---|
①②③④ |②---|
口口口口 |③---|
口口口口 |④---|
32
口口口口 |①---|
口口口口 |②---|
④③②① |③---|
口口口口 |④---|
33
④③②① |①---|
口口口口 |②---|
口口口口 |③---|
口口口口 |④---|
34
口口口口 |①---|
口口口口 |②---|
口口口口 |③---|
①②③④ |④---|
35
④③②① |①---|
口口口口 |②---|
口口口口 |③---|
口口口口 |④---|
36
口口口口 |①---|
②④口口 |②---|
①③口口 |③---|
口口口口 |④---|
37
口口口口 |①---|
口口②④ |②---|
口口①③ |③---|
口口口口 |④---|
38
②口口② |①---|
口③③口 |②---|
口④④口 |③---|
口①①口 |④---|
39
口①①口 |----|
②口口② |①---|
③口口③ |②---|
口口口口 |③---|
40
②口口② |①---|
口③③口 |②---|
口④④口 |③---|
口①①口 |④---|
41
口口口口 |----|
①口口① |①---|
②口口② |②---|
③口口③ |③---|
42
②口口② |①---|
口③③口 |②---|
口④④口 |③---|
口①①口 |④---|
43
口①①口 |----|
②口口② |①---|
③口口③ |②---|
口口口口 |③---|
44
②口口② |①---|
口③③口 |②---|
口④④口 |③---|
口①①口 |④---|
45
口口口口 |----|
①口口① |①---|
②口口② |②---|
③口口③ |③---|
46
口口④口 |①---|
口③口口 |②---|
口口②口 |③---|
口①口口 |④---|
47
①口口口 |----|
口口口② |①---|
③口口口 |②---|
口口口口 |③---|
48
口④口口 |①---|
口口③口 |②---|
口②口口 |③---|
口口①口 |④---|
49
口口口① |----|
②口口口 |①---|
口口口③ |②---|
口口口口 |③---|
50
口口口口 |①---|
口口口口 |②---|
口口口口 |③---|
①③④② |④---|
51
口口口口 |①---|
口口口口 |②---|
①③④② |③---|
口口口口 |④---|
52
口口口口 |①---|
①③④② |②---|
口口口口 |③---|
口口口口 |④---|
53
①③④② |①---|
口口口口 |②---|
口口口口 |③---|
口口口口 |④---|
54
口口口口 |①---|
口①①口 |----|
口口口口 |----|
口口口口 |----|
55
口口口口 |----|
口口口口 |----|
口口口口 |----|
口口口口 |----|
56
口口口口 |----|
口口口口 |----|
口口口口 |----|
口口口口 |----|
57
口口口口 |----|
口口口口 |----|
口口口口 |----|
口口口口 |----|
58
口口口口 |①---|
口口口口 |----|
口口口口 |----|
①口口口 |----|
59
口口口① |①---|
口口口口 |----|
口口口口 |----|
口口口口 |----|
60
①口口口 |①---|
口口口口 |----|
口口口口 |----|
口口口口 |----|
61
口口口口 |①---|
口口口口 |----|
口口口口 |----|
口口口① |----|
62
口口口口 |①---|
口口口口 |----|
口口口口 |----|
口①口口 |----|
63
口口①口 |①---|
口口口口 |----|
口口口口 |----|
口口口口 |----|
64
口①口口 |①---|
口口口口 |----|
口口口口 |----|
口口口口 |----|
65
口口口口 |①---|
口口口口 |----|
口口口口 |----|
口口①口 |----|
66
口口口② |①---|
口口口口 |----|
口口口口 |②---|
①口口口 |----|
67
①口口口 |①---|
口口口口 |----|
口口口口 |②---|
口口口② |----|
68
口口②口 |①---|
口口口口 |----|
口口口口 |②---|
口①口口 |----|
69
口①口口 |①---|
口口口口 |----|
口口口口 |②---|
口口②口 |----|
70
③口口② |①---|
口口口口 |②---|
口口口口 |③---|
①口口④ |④---|
71
口③②口 |①---|
口口口口 |②---|
口口口口 |③---|
口①④口 |④---|
72
③口口② |①---|
口口口口 |②---|
口口口口 |③---|
①口口④ |④---|
73
口③②口 |①---|
口口口口 |②---|
口口口口 |③---|
口①④口 |④---|
74
口口口口 |①---|
口①①口 |----|
口①①口 |----|
口口口口 |----|
75
口口口口 |----|
口口口口 |----|
口口口口 |----|
口口口口 |----|
76
①口口口 |①---|
口口③③ |②---|
口口④④ |③---|
②口口口 |④---|
77
口口口① |①---|
③③口口 |②---|
④④口口 |③---|
口口口② |④---|
78
口③①口 |①---|
口口口口 |②---|
口口口口 |③---|
口④②口 |④---|
79
①口口① |①---|
②口口② |②---|
③口口③ |③---|
④口口④ |④---|
80
口①口口 |①---|
口口③③ |②---|
口口④④ |③---|
口②口口 |④---|
81
口口①口 |①---|
③③口口 |②---|
④④口口 |③---|
口口②口 |④---|
82
①口口③ |①---|
口口口口 |②---|
口口口口 |③---|
②口口④ |④---|
83
口①①口 |①---|
口②②口 |②---|
口③③口 |③---|
口④④口 |④---|
84
①口口口 |①---|
口口③③ |②---|
口口④④ |③---|
②口口口 |④---|
85
口口口① |①---|
③③口口 |②---|
④④口口 |③---|
口口口② |④---|
86
口③①口 |①---|
口口口口 |②---|
口口口口 |③---|
口④②口 |④---|
87
①口口① |①---|
②口口② |②---|
③口口③ |③---|
④口口④ |④---|
88
口①口口 |①---|
口口③③ |②---|
口口④④ |③---|
口②口口 |④---|
89
口口①口 |①---|
③③口口 |②---|
④④口口 |③---|
口口②口 |④---|
90
③口口① |①---|
口口口口 |②---|
口口口口 |③---|
④口口② |④---|
91
口①①口 |①---|
口②②口 |②---|
口③③口 |③---|
口④④口 |④---|
92
口口③③ |①---|
②口口① |--②-|
②口口① |----|
口口口口 |③---|
93
①①口口 |--①-|
口口口口 |----|
口口口口 |②---|
③③②② |③---|
94
口口口口 |①---|
口①①口 |----|
口①①口 |----|
口口口口 |----|

不確定度: 0

最終更新:2014年08月01日 23:58