Follow Me
E-girls

BASIC

Level: 3
BPM: 143
Notes: 166

1
口口口口 |----|
口口口口 |----|
口口口口 |----|
口口口口 |----|
2
口口口口 |----|
口口口口 |----|
口口口口 |----|
口口口口 |----|
3
口口口口 |----|
口口口口 |----|
口口口口 |----|
口口口口 |----|
4
口口口口 |----|
口口口口 |----|
口口口口 |----|
口口口口 |----|
5
口口口口 |----|
口口口口 |----|
口口口口 |----|
口口口口 |----|
6
口口口口 |①---|
口口口口 |----|
口①②口 |②---|
口口口口 |----|
7
口口口口 |①---|
口口①② |----|
口口口口 |②---|
口口口口 |----|
8
口口口口 |①---|
口口口口 |----|
口②①口 |②---|
口口口口 |----|
9
口口口口 |①---|
②①口口 |----|
口口口口 |②---|
口口口口 |----|
10
口口口口 |①---|
口①②口 |----|
口口口口 |②---|
口口口口 |----|
11
口口①② |①---|
口口口口 |----|
口口口口 |②---|
口口口口 |----|
12
口口口口 |①---|
口②①口 |----|
口口口口 |②---|
口口口口 |----|
13
②①①② |①---|
口口口口 |----|
口口口口 |②---|
口口口口 |----|
14
口口口口 |①---|
口①②口 |----|
口口口口 |②---|
口口口口 |----|
15
口口口口 |①---|
口口口口 |----|
口口①② |②---|
口口口口 |----|
16
口口口口 |①---|
口②①口 |----|
口口口口 |②---|
口口口口 |----|
17
口口口口 |①---|
口口口口 |----|
②①口口 |②---|
口口口口 |----|
18
口口口口 |①---|
口口口口 |----|
口①②口 |②---|
口口口口 |----|
19
口口口口 |①---|
口口口口 |----|
口口口口 |②---|
口口①② |----|
20
口口口口 |①---|
口口口口 |----|
口②①口 |②---|
口口口口 |----|
21
口口口口 |①---|
口口口口 |----|
口口口口 |②---|
②①①② |----|
22
口口口口 |①---|
口口口口 |②---|
口③④口 |③---|
口①②口 |④---|
23
④口口④ |①---|
③①②③ |②---|
口口口口 |③---|
口口口口 |④---|
24
口口口口 |①---|
口口口口 |②---|
口③④口 |③---|
口①②口 |④---|
25
④口口④ |①---|
③①②③ |②---|
口口口口 |③---|
口口口口 |④---|
26
口口口口 |①---|
口口口口 |②---|
口③④口 |③---|
口①②口 |④---|
27
④口口④ |①---|
③①②③ |②---|
口口口口 |③---|
口口口口 |④---|
28
口口口口 |①---|
口①①口 |----|
口口口口 |②---|
口②②口 |----|
29
口口③口 |----|
口②口口 |①---|
①口口口 |②---|
口口口口 |③---|
30
③③口口 |①---|
口口②② |②---|
口口④④ |③---|
①①口口 |④---|
31
③③②② |①---|
口口口口 |②---|
①①④④ |③---|
口口口口 |④---|
32
口口口口 |①---|
①口口① |----|
口口口口 |②---|
口②②口 |----|
33
①②口口 |①---|
口口口口 |----|
口口口口 |②---|
口口口口 |----|
34
口口口口 |①---|
口①①口 |----|
口口口口 |----|
口口口口 |----|
35
口口口口 |①---|
口口口口 |----|
口口②① |②---|
口口口口 |----|
36
口口口口 |①---|
口①①口 |----|
口口口口 |----|
口口口口 |----|
37
口口③口 |----|
口②口口 |①---|
①口口口 |②---|
口口口口 |③---|
38
①①口口 |①---|
口口④④ |②---|
口口②② |③---|
③③口口 |④---|
39
口口口口 |①---|
①①④④ |②---|
口口口口 |③---|
③③②② |④---|
40
①口口① |①---|
口口口口 |----|
口②②口 |②---|
口口口口 |----|
41
口口口口 |①---|
①②口口 |----|
口口口口 |②---|
口口口口 |----|
42
口口口口 |①---|
口口口口 |----|
口①①口 |----|
口口口口 |----|
43
口口口口 |①---|
口口口口 |----|
口口口口 |②---|
口口②① |----|
44
口口口口 |①---|
口口口口 |----|
口①①口 |----|
口口口口 |----|
45
口口口口 |----|
口口口口 |----|
口①①口 |①---|
口口口口 |----|
46
①口口① |①---|
口②②口 |----|
口口口口 |②---|
口口口口 |----|
47
口口口口 |①---|
①口口① |----|
口②②口 |②---|
口口口口 |----|
48
口口口口 |①---|
口口口口 |----|
①口口① |②---|
口②②口 |----|
49
③③②② |①---|
口口口口 |②---|
①①④④ |③---|
口口口口 |④---|
50
口口口口 |①---|
口①①口 |----|
口②②口 |②---|
口口口口 |----|
51
②口口② |①---|
口口口口 |----|
①口口① |②---|
口口口口 |----|
52
口口口口 |①---|
口①①口 |----|
口①①口 |----|
口口口口 |----|

不確定度: 0

最終更新:2014年08月01日 23:57