Follow Me
E-girls

ADVANCED

Level: 5
BPM: 143
Notes: 264

1
口口口口 |----|
口口口口 |----|
口口口口 |----|
口口口口 |----|
2
口口口口 |----|
口口口口 |----|
口口口口 |----|
口口口口 |----|
3
口口口口 |----|
口口口口 |----|
口口口口 |----|
口口口口 |----|
4
口口口口 |----|
口口口口 |----|
口口口口 |----|
口口口口 |----|
5
口口口口 |----|
口口口口 |----|
口口口口 |----|
口口口口 |----|
6
口②口口 |----|
①口口口 |--①-|
口口③③ |②---|
口口口口 |③---|
7
口口口口 |----|
口口③③ |--①-|
①口口口 |②---|
口②口口 |③---|
8
口①②口 |----|
口口口口 |--①-|
口③④口 |②---|
口口口口 |③-④-|
9
口口口口 |--①-|
①③②口 |--②-|
口⑤④口 |③-④-|
口口口口 |⑤---|
10
口口②口 |----|
口口口① |--①-|
③③口口 |②---|
口口口口 |③---|
11
口口口口 |----|
③③口口 |--①-|
口口口① |②---|
口口②口 |③---|
12
①口②口 |--①-|
口③口④ |--②-|
⑤⑤口口 |③---|
口口口口 |④-⑤-|
13
口口口口 |--①-|
口①口② |--②-|
③③口口 |③---|
口口④④ |④---|
14
口口②口 |----|
口口口① |--①-|
③③口口 |②---|
口口口口 |③---|
15
口口口口 |----|
③③口口 |--①-|
口口口① |②---|
口口②口 |③---|
16
口②①口 |----|
口口口口 |--①-|
口④③口 |②---|
口口口口 |③-④-|
17
口口口口 |--①-|
①③②口 |--②-|
口⑤④口 |③-④-|
口口口口 |⑤---|
18
口口②口 |----|
口口口① |--①-|
③③口口 |②---|
口口口口 |③---|
19
口口口口 |----|
③③口口 |--①-|
口口口① |②---|
口口②口 |③---|
20
①②③口 |--①-|
口④口⑤ |②-③-|
⑥⑥口口 |④---|
口口口口 |⑤-⑥-|
21
口口口口 |--①-|
口①口② |--②-|
③③口口 |③---|
口口④④ |④---|
22
口口口口 |--①-|
①②③④ |②-③-|
口口⑥口 |④---|
口⑤口口 |⑤-⑥-|
23
口口口口 |--①-|
口③③口 |--②-|
口①口② |③---|
口④④口 |④---|
24
①②③④ |--①-|
口口⑥口 |②-③-|
口⑤口口 |④---|
口口口口 |⑤-⑥-|
25
口③③口 |--①-|
口①口② |--②-|
口④④口 |③---|
口口口口 |④---|
26
口口口口 |--①-|
①②③④ |②-③-|
口口⑥口 |④---|
口⑤口口 |⑤-⑥-|
27
口口口口 |--①-|
口③③口 |--②-|
口①口② |③---|
口④④口 |④---|
28
口口口口 |--①-|
口①口口 |--②-|
③口口③ |③---|
口口②口 |----|
29
口口③口 |----|
口②口口 |①---|
口口①口 |②---|
口口口口 |③---|
30
口口口口 |①-②-|
③⑥⑥③ |③---|
②⑤⑤② |④-⑤-|
①④④① |⑥---|
31
③⑥⑥③ |①-②-|
②⑤⑤② |③---|
①④④① |④-⑤-|
口口口口 |⑥---|
32
①口口① |①---|
口口口口 |--②-|
口②②口 |③---|
③口口③ |----|
33
口口④④ |----|
口③口口 |①---|
口口②② |②---|
①口口口 |③-④-|
34
口④口口 |----|
口口③口 |①---|
口②口口 |②---|
口口口① |③-④-|
35
口口④④ |----|
口③口口 |①---|
口口②② |②---|
①口口口 |③-④-|
36
口④口口 |----|
口口③口 |①---|
口②口口 |②---|
口口口① |③-④-|
37
口口③口 |----|
口②口口 |①---|
口口①口 |②---|
口口口口 |③---|
38
口口口口 |①-②-|
③⑥⑥③ |③---|
②⑤⑤② |④-⑤-|
①④④① |⑥---|
39
③⑥⑥③ |①-②-|
②⑤⑤② |③---|
①④④① |④-⑤-|
口口口口 |⑥---|
40
①口口① |①---|
口口口口 |--②-|
口②②口 |③---|
③口口③ |----|
41
④④口口 |----|
口口③口 |①---|
②②口口 |②---|
口口口① |③-④-|
42
口口④口 |----|
口③口口 |①---|
口口②口 |②---|
①口口口 |③-④-|
43
④④口口 |----|
口口③口 |①---|
②②口口 |②---|
口口口① |③-④-|
44
口口④口 |----|
口③口口 |①---|
口口②口 |②---|
①口口口 |③-④-|
45
口①口口 |----|
口③④口 |①---|
口口②口 |②---|
口口口口 |③-④-|
46
口口口口 |①---|
①④口① |--②-|
口②③口 |③---|
口口口口 |--④-|
47
口口口口 |①---|
口口口口 |--②-|
①②③① |③---|
口口口口 |----|
48
口口口口 |①---|
口④⑤口 |--②-|
口口口口 |③---|
①②③① |④-⑤-|
49
口③③口 |①---|
②④④② |②---|
口①①口 |③---|
口口口口 |④---|
50
口口口口 |①---|
②②③③ |--②-|
口①①口 |③---|
口口口口 |----|
51
口②口② |①---|
③口③口 |②---|
口⑤⑤口 |③---|
①④①④ |④-⑤-|

不確定度: 0

最終更新:2014年08月01日 23:56