Follow Me
E-girls

EXTREME

Level: 7
BPM: 143
Notes: 418

1
口口口口 |----|
口口口口 |----|
口口口口 |----|
口口口口 |----|
2
口口口口 |①-②-|
口口口⑥ |③-④-|
口⑧⑤③ |⑤-⑥-|
⑦④②① |⑦-⑧-|
3
口口④口 |①-②-|
口③①口 |③-④-|
②口口口
口口口口

口⑥口口
⑤口⑧口
口⑦口口 |⑤-⑥-|
口口口口 |⑦-⑧-|
4
口口口口 |①-②-|
口口口⑥ |③-④-|
口⑧⑤③ |⑤-⑥-|
⑦④②① |⑦-⑧-|
5
口口④口 |①-②-|
口③①口 |③-④-|
②口口口
口口口口

口⑥口口
⑤口⑧口
口⑦⑦口 |⑤-⑥-|
口口口口 |⑦-⑧-|
6
②②口口 |①---|
口④④① |--②-|
口口③③ |③---|
口口口口 |④---|
7
口口口口 |----|
①①口口 |--①-|
口③③口 |②---|
口口②② |③---|
8
口口口口 |----|
①②口口 |--①-|
口口④③ |②---|
口口口口 |③-④-|
9
口口⑤⑤ |--①-|
口口④口 |--②-|
③③口② |③-④-|
口①口口 |⑤---|
10
①①口口 |----|
口③③口 |--①-|
口口②② |②---|
口口口口 |③---|
11
口口口口 |----|
①①口口 |--①-|
口③③口 |②---|
口口②② |③---|
12
口口②口 |--①-|
口口口口 |--②-|
①口口口
口口口口

口口口口
口③口④
⑤口口⑤ |③---|
口口口口 |④-⑤-|
13
口③③口 |--①-|
①口②口 |--②-|
口口口口 |③---|
口④④口 |④---|
14
口②口① |①---|
②④④③ |--②-|
口口③口 |③---|
口口口口 |④---|
15
口口口口 |----|
口①口口 |--①-|
①③③② |②---|
口口②口 |③---|
16
口口口口 |----|
①②口口 |--①-|
口口④③ |②---|
口口口口 |③-④-|
17
口口⑤⑤ |--①-|
口口④口 |--②-|
③③口② |③-④-|
口①口口 |⑤---|
18
口①口口 |----|
①③③② |--①-|
口口②口 |②---|
口口口口 |③---|
19
口口口口 |----|
口①口口 |--①-|
①③③② |②---|
口口②口 |③---|
20
⑤口④口 |--①-|
①②③口 |②-③-|
口⑥⑥口 |④---|
口口口口 |⑤-⑥-|
21
口③③口 |--①-|
①口②口 |--②-|
口口口口 |③---|
口④④口 |④---|
22
①口口口 |--①-|
口②口口 |②-③-|
⑤⑥③口 |④---|
口口口④ |⑤-⑥-|
23
口口口口 |--①-|
口②口① |--②-|
口口口口
口口口口

口③③口
④口口④
④口口④ |③---|
口③③口 |④---|
24
口口口① |--①-|
口口②口 |②-③-|
口③⑥⑤ |④---|
④口口口 |⑤-⑥-|
25
口口口口 |--①-|
①口②口 |--②-|
口口口口
口口口口

口③③口
④口口④
④口口④ |③---|
口③③口 |④---|
26
①口口口 |--①-|
口②口口 |②-③-|
⑤⑥③口 |④---|
口口口④ |⑤-⑥-|
27
口③③② |--①-|
④①口④ |--②-|
④口口④ |③---|
口③③口 |④---|
28
②口①口 |--①-|
口口口口 |--②-|
口口口口
口口口口

口④④口
口③口③
口③③③ |③---|
口口③口 |--④-|
29
口口口口 |----|
③口口③ |①---|
②口口② |②---|
①口口① |③---|
30
①④①④ |①-②-|
口③⑥口 |③---|
口⑥③口 |④-⑤-|
⑤②⑤② |⑥---|
31
①④①④ |①-②-|
口③⑥口 |③---|
口⑥③口 |④-⑤-|
⑤②⑤② |⑥---|
32
①口口口 |①---|
①②口口 |--②-|
口口②③ |③---|
口口口③ |----|
33
①口口② |----|
口③④口 |①---|
口④③口 |②---|
②口口① |③-④-|
34
口口口口 |----|
口口口口 |①---|
①口口② |②---|
口③④口 |③-④-|
35
②口口① |----|
口④③口 |①---|
口③④口 |②---|
①口口② |③-④-|
36
口口口口 |----|
口口口口 |①---|
①口口② |②---|
口③④口 |③-④-|
37
口口口口 |----|
③口口③ |①---|
②口口② |②---|
①口口① |③---|
38
④①④① |①-②-|
口⑥③口 |③---|
口③⑥口 |④-⑤-|
②⑤②⑤ |⑥---|
39
④①④① |①-②-|
口⑥③口 |③---|
口③⑥口 |④-⑤-|
②⑤②⑤ |⑥---|
40
口口口① |①---|
口口②① |--②-|
③②口口 |③---|
③口口口 |----|
41
②口口① |----|
口④③口 |①---|
口③④口 |②---|
①口口② |③-④-|
42
口口口口 |----|
口口口口 |①---|
②口口① |②---|
口④③口 |③-④-|
43
①口口② |----|
口③④口 |①---|
口④③口 |②---|
②口口① |③-④-|
44
口口口口 |----|
口口口口 |①---|
②口口① |②---|
口④③口 |③-④-|
45
口口②口 |----|
①③④② |①---|
口①口口 |②---|
口口口口 |③-④-|
46
④④口口 |①-②-|
②口口口 |③-④-|
口口③口
口①①①

口口口口
⑧口⑤⑤
口⑧口⑦ |⑤-⑥-|
⑥口口口 |⑦-⑧-|
47
④④口口 |①-②-|
口②⑤⑤ |③-④-|
⑥⑧③⑦ |⑤-⑥-|
口①①① |⑦-⑧-|
48
④④⑤⑤ |①-②-|
口②⑦口 |③-④-|
口⑧③口 |⑤-⑥-|
⑥①①① |⑦-⑧-|
49
口②③口 |①---|
②①④③ |②---|
④③②① |③---|
口④①口 |④---|
50
①③③口 |①---|
①②②口 |--②-|
口口口① |③---|
口口口① |----|
51
口口口口 |①---|
②①口② |②---|
②口①②
口口口口

口③③口
口口口口
口④④口 |③---|
⑤③③⑤ |④-⑤-|
52
①③⑥口 |①-②-|
②⑤⑧口 |③-④-|
④⑦口口 |⑤-⑥-|
口口口口 |⑦-⑧-|
53
口口口① |①-②-|
口口⑧④ |③-④-|
口⑦③⑥ |⑤-⑥-|
口②⑤口 |⑦-⑧-|
54
①③⑥口 |①-②-|
②⑤⑧口 |③-④-|
④⑦口口 |⑤-⑥-|
口口口口 |⑦-⑧-|
55
口口口① |①-②-|
口口口④ |③-④-|
口口③口
口②口口

口口口口
口⑦⑦口
口口⑧⑥ |⑤-⑥-|
口口⑤口 |⑦-⑧-|

不確定度: 0

最終更新:2014年08月01日 23:56