eternal reality
fripSide

BASIC

Level: 3
BPM: 145
Notes: 182

1
口口口口 |----|
口口口口 |----|
口口口口 |----|
口口口口 |----|
2
口口口口 |①---|
②口口② |--②-|
口①口口 |----|
口口口口 |----|
3
口口口口 |①---|
口②②口 |--②-|
口口①口 |----|
口口口口 |----|
4
口②②口 |①---|
口口口口 |--②-|
口①口口 |----|
口口口口 |----|
5
①口口① |①---|
②口口② |②---|
③口口③ |③---|
④口口④ |④---|
6
口口口口 |①---|
口③口口 |②---|
口口②口 |③---|
口①口口 |----|
7
口口口口 |①---|
口口③口 |②---|
口②口口 |③---|
口口①口 |----|
8
①①口口 |①---|
口口②② |----|
口口口口 |②---|
口口口口 |----|
9
口口口口 |①---|
口口口口 |----|
①①口口 |②---|
口口②② |----|
10
口口口口 |①---|
口③口口 |②---|
口口②口 |③---|
口①口口 |----|
11
口口口口 |①---|
口口③口 |②---|
口②口口 |③---|
口口①口 |----|
12
①口口① |①---|
②口口② |----|
口口口口 |②---|
口口口口 |----|
13
口口口口 |①---|
口口口口 |----|
口①①口 |----|
口口口口 |----|
14
口口口口 |----|
口口口口 |----|
口口口口 |----|
口口口口 |----|
15
口口口口 |①---|
口口口③ |②---|
口口②口 |③---|
口①口口 |----|
16
口口①口 |①---|
口②口口 |②---|
③口口口 |③---|
口口口口 |----|
17
口口口口 |①---|
口①口口 |②---|
口口②口 |③---|
口口口③ |----|
18
④④④④ |①---|
口口②口 |②---|
③③③③ |③---|
口①口口 |④---|
19
口口口口 |①---|
口①口口 |②---|
口口②口 |③---|
口口口③ |----|
20
口口口口 |①---|
③口口口 |②---|
口②口口 |③---|
口口①口 |----|
21
口口①① |①---|
口②②口 |----|
口口口口 |②---|
口口口口 |----|
22
口口口口 |①---|
口口口口 |----|
①①口口 |②---|
口②②口 |----|
23
口口口口 |①---|
口口口口 |----|
②口口口 |②---|
①口口口 |----|
24
口口②口 |①---|
①口口口 |----|
口口口口 |②---|
口口口口 |----|
25
口口口口 |①---|
口口①口 |----|
口②口口 |②---|
口口口口 |----|
26
②口口② |①---|
口①①口 |----|
口口口口 |②---|
口口口口 |----|
27
口①②口 |①---|
口③口口 |②---|
口口口口 |③---|
口口口口 |----|
28
口口口口 |①---|
口口口口 |②---|
口①②口 |③---|
口③口口 |----|
29
口口口口 |①---|
口口口口 |②---|
③口口④ |③---|
①口口② |④---|
30
口②②口 |①---|
口①①口 |----|
口口口口 |②---|
口口口口 |----|
31
②口口② |①---|
口口口口 |----|
①口口① |②---|
口口口口 |----|
32
口口口口 |①---|
②口口② |--②-|
口①口口 |----|
口口口口 |----|
33
口口口口 |①---|
口②②口 |--②-|
口口①口 |----|
口口口口 |----|
34
口②②口 |①---|
口口口口 |--②-|
口①口口 |----|
口口口口 |----|
35
口口口口 |①---|
①口口口 |②---|
口口口② |③---|
③口口口 |----|
36
口口口口 |①---|
②口口② |--②-|
口①口口 |----|
口口口口 |----|
37
口口口口 |①---|
口②②口 |--②-|
口口①口 |----|
口口口口 |----|
38
口②②口 |①---|
口口口口 |--②-|
口①口口 |----|
口口口口 |----|
39
口口口口 |①---|
口①口口 |②---|
口口口② |③---|
③口口④ |④---|
40
③口口③ |①---|
口④口口 |②---|
口①②口 |③---|
口口口口 |④---|
41
③口口③ |①---|
口口④口 |②---|
口②①口 |③---|
口口口口 |④---|
42
口口口口 |①---|
口口口口 |②---|
口①②口
口口口口

③口口③
口口口口
口④口口 |③---|
口口口口 |④---|
43
口①①口 |①---|
②口口② |②---|
③口口③ |③---|
④口口④ |④---|
44
口口口口 |①---|
口③口口 |②---|
口口②口 |③---|
口①口口 |----|
45
口口口口 |①---|
口口③口 |②---|
口②口口 |③---|
口口①口 |----|
46
①①口口 |①---|
口口②② |----|
口口口口 |②---|
口口口口 |----|
47
口口口口 |①---|
口口口口 |----|
①①口口 |②---|
口口②② |----|
48
口口口口 |①---|
口③口口 |②---|
口口②口 |③---|
口①口口 |----|
49
口口口口 |①---|
口口③口 |②---|
口②口口 |③---|
口口①口 |----|
50
①口口① |①---|
②口口② |----|
口口口口 |②---|
口口口口 |----|
51
口口口口 |①---|
口口口口 |----|
口口口口 |----|
口①①口 |----|
52
口口口口 |①---|
口①①口 |----|
口①①口 |----|
口口口口 |----|

不確定度: 0

最終更新:2014年08月01日 23:54