eternal reality
fripSide

ADVANCED

Level: 6
BPM: 145
Notes: 364

1
口口口口 |----|
口口口口 |----|
口口口口 |----|
口口口口 |----|
2
③口口③ |①--②|
口④⑤口 |--③-|
口②②口 |----|
口①①口 |④-⑤-|
3
口③③口 |①--②|
口口口口 |--③-|
②④⑤② |----|
①口口① |④-⑤-|
4
③口口③ |①--②|
口口口口 |--③-|
②口口②
口①①口

口口口口
口④口口
口口⑤口 |--④-|
口⑥口口 |⑤-⑥-|
5
口①①口 |①---|
②口口② |②---|
③口口③ |③---|
④口口④ |④---|
6
口④⑤口 |①-②-|
口口③口 |③-④⑤|
口②口口 |----|
⑥口①口 |--⑥-|
7
口④⑤口 |①-②-|
⑥口口③ |③-④⑤|
②口⑦口 |--⑥-|
⑧口口① |⑦-⑧-|
8
口口口口 |①---|
口④②口 |--②-|
口口口口 |③---|
口③口① |--④-|
9
口④②口 |①-②-|
口口口口 |③-④-|
口③⑤口 |⑤---|
口口①⑥ |--⑥-|
10
口⑤④口 |①-②-|
口③口口 |③-④⑤|
口口②口
①口口口

口口口口
口口口口
口口口口 |----|
⑥口口口 |--⑥-|
11
口④⑤口 |①-②-|
口口③口 |③-④⑤|
口②口口
口口口①

口口口口
口口口⑥
⑦口口口 |--⑥-|
口口口⑧ |⑦-⑧-|
12
口口④④ |①--②|
⑥⑤⑤⑥ |--③-|
③②②③ |④--⑤|
①①口口 |--⑥-|
13
口口口口 |①---|
口口口口 |----|
口口口口
口①①口

②口②口
口④④口
口④④口 |②--③|
口③口③ |--④-|
14
口口口口 |----|
口口口口 |----|
口口口口 |----|
口口口口 |----|
15
口①口口 |①-②-|
口⑦②口 |③-④-|
口③⑥口 |⑤---|
⑤口④口 |⑥-⑦-|
16
口口口① |①-②-|
②口口口 |③-④-|
口口口③ |⑤---|
④口口⑤ |----|
17
口①口口 |①-②-|
⑦口②⑥ |③-④-|
口③口口 |⑤---|
口⑤④口 |⑥-⑦-|
18
⑥⑥⑥⑥ |①-②-|
口④③口 |③-④-|
口②①口 |⑤---|
⑤⑤⑤⑤ |⑥---|
19
口口口口 |①-②-|
①口口④ |③-④-|
⑦⑤口口 |⑤---|
③口⑥② |⑥-⑦-|
20
口口①口 |①-②-|
②口口口 |③-④-|
口口口③
口④口口

口口⑥口
口⑦口口
口口口口 |⑤---|
口口口⑤ |⑥-⑦-|
21
口口口⑥ |①---|
⑤口④口 |--②-|
③口口① |③-④-|
口口②口 |⑤-⑥-|
22
口①口口 |①---|
口口②口 |--②-|
口③口口 |③---|
口口口口 |----|
23
口口口④ |①---|
③口口口 |----|
②口口口 |②--③|
口口①口 |--④-|
24
④①口口 |①---|
口口口③ |----|
口口口② |②--③|
口口口口 |--④-|
25
口④①口 |①---|
口④口口 |----|
③口口③ |②--③|
②口口② |--④-|
26
口口①口 |①--②|
③口①④ |--③-|
③⑤⑤④ |④---|
口②②口 |⑤---|
27
①①口口 |①--②|
口口②② |--③-|
口口口口 |④---|
③口⑤④ |--⑤-|
28
①口口② |①--②|
①口口② |--③-|
口③口口
口口口口

口口口口
口口口⑤
口口④口 |④---|
口口口口 |--⑤-|
29
口④③口 |①--②|
②口口口 |--③-|
口口⑤口 |④---|
口①口口 |⑤---|
30
口④④口 |①---|
③口口② |--②-|
③口口② |③---|
口①口口 |--④-|
31
②口口③ |①---|
口④④口 |--②-|
②口口③ |③---|
口①①口 |④---|
32
③口口③ |①--②|
口④⑤口 |--③-|
口②②口 |----|
口①①口 |④-⑤-|
33
口③③口 |①--②|
口口口口 |--③-|
②④⑤② |----|
①口口① |④-⑤-|
34
③口口③ |①--②|
口口口口 |--③-|
②口口②
口①①口

口口口口
口④口口
口口⑤口 |--④-|
口⑥口口 |⑤-⑥-|
35
③①①② |①---|
口口口口 |②---|
口口口口 |③---|
②口口③ |----|
36
③口口③ |①--②|
口④⑤口 |--③-|
口②②口 |----|
口①①口 |④-⑤-|
37
口③③口 |①--②|
口口口口 |--③-|
②④⑤② |----|
①口口① |④-⑤-|
38
③口口③ |①--②|
口口口口 |--③-|
②口口②
口①①口

口口口口
口④口口
口口⑤口 |--④-|
口⑥口口 |⑤-⑥-|
39
口①①口 |①---|
②③④② |②---|
⑤口口⑥ |③-④-|
口口口口 |⑤-⑥-|
40
③口口③ |①--②|
口④⑤口 |--③-|
口②②口 |----|
口①①口 |④-⑤-|
41
口③③口 |①--②|
口口口口 |--③-|
②④⑤② |----|
①口口① |④-⑤-|
42
③口口③ |①--②|
口口口口 |--③-|
②口口②
口①①口

口口口口
口④口口
口口⑤口 |--④-|
口⑥口口 |⑤-⑥-|
43
口①①口 |①---|
②口口② |②---|
③口口③ |③---|
④口口④ |④---|
44
口④⑤口 |①-②-|
口口③口 |③-④⑤|
口②口口 |----|
⑥口①口 |--⑥-|
45
口④⑤口 |①-②-|
⑥口口③ |③-④⑤|
②口⑦口 |--⑥-|
⑧口口① |⑦-⑧-|
46
口口口口 |①---|
口④②口 |--②-|
口口口口 |③---|
口③口① |--④-|
47
口④②口 |①-②-|
口口口口 |③-④-|
口③⑤口 |⑤---|
口口①⑥ |--⑥-|
48
口⑤④口 |①-②-|
口③口口 |③-④⑤|
口口②口
①口口口

口口口口
口口口口
口口口口 |----|
⑥口口口 |--⑥-|
49
口④⑤口 |①-②-|
口口③口 |③-④⑤|
口②口口
口口口①

口口口口
口口口⑥
⑦口口口 |--⑥-|
口口口⑧ |⑦-⑧-|
50
口口④④ |①--②|
⑥⑤⑤⑥ |--③-|
③②②③ |④--⑤|
①①口口 |--⑥-|
51
口④③口 |①-②-|
口口口口 |③-④-|
②口口口
口①①口

口口口口
⑥口口⑤
⑧口口⑦ |⑤-⑥-|
口口口口 |⑦-⑧-|
52
口口口口 |①---|
口口口口 |----|
口口口口 |----|
口①①口 |----|

不確定度: 0

最終更新:2014年08月01日 23:54