8 -eight-
Tom-H@ck feat.Nadia

BASIC

Level: 4
BPM: 230
Notes: 300

1
口口口口 |----|
口口口口 |----|
口口口口 |----|
口口口口 |----|
2
口口口口 |----|
口口口口 |----|
口口口口 |----|
口口口口 |----|
3
口①①口 |①---|
口口口口 |----|
口口口口 |----|
口口口口 |----|
4
口口口口 |①---|
口②①口 |----|
口口口口 |②---|
口口口口 |----|
5
口口口口 |①---|
口口口口 |----|
口①①口 |----|
口口口口 |----|
6
口口口口 |①---|
①口口① |----|
口口口口 |----|
口口口口 |----|
7
口口口口 |①---|
口①①口 |----|
口①①口 |----|
口口口口 |----|
8
口口口口 |①---|
①口口① |----|
①口口① |----|
口口口口 |----|
9
口口口口 |①---|
口①口口 |----|
口口②口 |②---|
口口口口 |----|
10
口口口口 |①---|
口口口口 |----|
口口口③ |②---|
口①口② |③---|
11
口口口口 |①---|
①②口口 |----|
口口口口 |②---|
口口口口 |----|
12
口口口口 |①---|
口口①口 |----|
口口口③ |②---|
口口口② |③---|
13
口口口口 |①---|
口口②① |----|
口口口口 |②---|
口口口口 |----|
14
口口口口 |①---|
口①口口 |----|
③口口口 |②---|
②口口口 |③---|
15
口口口口 |①---|
①②口口 |----|
口口口口 |②---|
口口口口 |----|
16
口口口口 |①---|
口口①口 |----|
口口口③ |②---|
口口口② |③---|
17
口口口口 |①---|
口口口口 |----|
口口②口 |②---|
口①口口 |----|
18
口口口② |①---|
口①口③ |----|
口口口口 |②---|
口口口口 |③---|
19
口②口口 |①---|
口口口口 |----|
口①①口 |②---|
口口口口 |----|
20
口口②口 |①---|
口口口口 |----|
口①①口 |②---|
口口口口 |----|
21
②口口口 |①---|
口口口口 |----|
口①①口 |②---|
口口口口 |----|
22
口口口② |①---|
口口口口 |----|
口①①口 |②---|
口口口口 |----|
23
口口口口 |①---|
①②口口 |----|
口口口口 |②---|
口口口口 |----|
24
口口口口 |①---|
口口①口 |----|
口口口③ |②---|
口口口② |③---|
25
口口口口 |①---|
口口②① |----|
口口口口 |②---|
口口口口 |----|
26
口口口口 |①---|
口①口口 |----|
③口口口 |②---|
②口口口 |③---|
27
口②口口 |①---|
口口口口 |----|
口①①口 |②---|
口口口口 |----|
28
口口②口 |①---|
口口口口 |----|
口①①口 |②---|
口口口口 |----|
29
②口口口 |①---|
口口口口 |----|
口①①口 |②---|
口口口口 |----|
30
口口口② |①---|
口口口口 |----|
口①①口 |②---|
口口口口 |----|
31
口口口口 |①---|
①②口口 |----|
口口口口 |②---|
口口口口 |----|
32
口口口口 |①---|
口口①口 |----|
口口口③ |②---|
口口口② |③---|
33
口口口口 |①---|
口口②① |----|
口口口口 |②---|
口口口口 |----|
34
口口口口 |①---|
口①口口 |----|
③口口口 |②---|
②口口口 |③---|
35
口口口口 |①---|
口口口口 |----|
口②口口 |②---|
口口①口 |----|
36
口②口口 |①---|
口口①口 |----|
口口口口 |②---|
口口口口 |----|
37
口口①口 |①---|
口②口口 |----|
口口口口 |②---|
口口口口 |----|
38
口口口口 |①---|
口口口口 |----|
口口①口 |②---|
口②口口 |----|
39
口口口口 |①---|
口口口口 |----|
②口口口 |②---|
口口口① |----|
40
②口口口 |①---|
口口口① |----|
口口口口 |②---|
口口口口 |----|
41
口口①口 |①---|
口口②口 |②---|
口口③口 |③---|
口口口口 |----|
42
口③口口 |①---|
口②口口 |②---|
口①口口 |③---|
口口口口 |----|
43
口口口口 |①---|
①口口① |----|
口口口口 |----|
口口口口 |----|
44
口口口口 |----|
口口口口 |----|
口口口口 |----|
口口口口 |----|
45
口①口口 |①---|
口口口② |②---|
口③口口 |③---|
口口口④ |④---|
46
口口口口 |①---|
口①②口 |②---|
口口口口 |----|
口口口口 |----|
47
④口口口 |①---|
口口③口 |②---|
②口口口 |③---|
口口①口 |④---|
48
口口口口 |①---|
②口口① |----|
②口口① |②---|
口口口口 |----|
49
口口④口 |①---|
口口③口 |②---|
口口②口 |③---|
口口①口 |④---|
50
①①口口 |①---|
口口口口 |----|
②②口口 |②---|
口口口口 |----|
51
口①口口 |①---|
口②口口 |②---|
口③口口 |③---|
口④口口 |④---|
52
口口口口 |①---|
口口②② |----|
口口口口 |②---|
口口①① |----|
53
口口①口 |①---|
②口口口 |②---|
口口③口 |③---|
④口口口 |④---|
54
口口口口 |①---|
口②①口 |②---|
口口口口 |----|
口口口口 |----|
55
口口口④ |①---|
口③口口 |②---|
口口口② |③---|
口①口口 |④---|
56
口口口口 |①---|
①口口② |----|
①口口② |②---|
口口口口 |----|
57
口口口口 |①---|
口①②口 |----|
口①②口 |②---|
口口口口 |----|
58
口口口口 |①---|
①口口② |----|
①口口② |②---|
口口口口 |----|
59
①口口① |①---|
②口口② |----|
口口口口 |②---|
口口口口 |----|
60
口口口口 |①---|
口口口口 |----|
①口口① |②---|
②口口② |----|
61
口①口口 |①---|
口口口② |②---|
口③口口 |③---|
口口口④ |④---|
62
口口口口 |①---|
口①②口 |②---|
口口口口 |----|
口口口口 |----|
63
④口口口 |①---|
口口③口 |②---|
②口口口 |③---|
口口①口 |④---|
64
口口口口 |①---|
②口口① |----|
②口口① |②---|
口口口口 |----|
65
口口④口 |①---|
口口③口 |②---|
口口②口 |③---|
口口①口 |④---|
66
①①口口 |①---|
口口口口 |----|
②②口口 |②---|
口口口口 |----|
67
口①口口 |①---|
口②口口 |②---|
口③口口 |③---|
口④口口 |④---|
68
口口口口 |①---|
口口②② |----|
口口口口 |②---|
口口①① |----|
69
口口①口 |①---|
②口口口 |②---|
口口③口 |③---|
④口口口 |④---|
70
口口口口 |①---|
口②①口 |②---|
口口口口 |----|
口口口口 |----|
71
口口口④ |①---|
口③口口 |②---|
口口口② |③---|
口①口口 |④---|
72
口口口口 |①---|
①口口② |----|
①口口② |②---|
口口口口 |----|
73
口口口口 |①---|
口①②口 |----|
口①②口 |②---|
口口口口 |----|
74
口口口口 |①---|
①口口② |----|
①口口② |②---|
口口口口 |----|
75
①口口① |①---|
②口口② |----|
口口口口 |②---|
口口口口 |----|
76
口口口口 |①---|
口口口口 |----|
①口口① |②---|
②口口② |----|
77
口口口口 |①---|
口①①口 |----|
口①①口 |----|
口口口口 |----|
78
口口口口 |----|
口口口口 |----|
口口口口 |①---|
口①①口 |----|
79
口口③口 |①---|
口②口口 |②---|
口口①口 |③---|
口口口口 |----|
80
口口口口 |①---|
①口口① |----|
②口口② |②---|
口口口口 |----|
81
口口口口 |①---|
口①①口 |----|
口②②口 |----|
口口口口 |②---|
82
口口口口 |----|
口口口口 |----|
口口口① |①---|
口口口② |②---|
83
口口口口 |①---|
口①①口 |----|
口②②口 |----|
口口口口 |②---|
84
口口口口 |----|
口口口口 |----|
①口口口 |①---|
②口口口 |②---|
85
口口口口 |①---|
口①①口 |----|
口②②口 |----|
口口口口 |②---|
86
口口口口 |----|
口口口口 |----|
口口口① |①---|
口口口② |②---|
87
口口④口 |①---|
口③口口 |②---|
口口②口 |③---|
口①口口 |④---|
88
口①口口 |①---|
口口②口 |②---|
口③口口 |③---|
口口④口 |④---|
89
口口口口 |①---|
①口口② |----|
①口口② |②---|
口口口口 |----|
90
口口口口 |①---|
口①②口 |----|
口①②口 |②---|
口口口口 |----|
91
口口口口 |①---|
①口口② |----|
①口口② |②---|
口口口口 |----|
92
口口口口 |①---|
口①②口 |----|
口①②口 |②---|
口口口口 |----|
93
口口口口 |①---|
①口口② |----|
①口口② |②---|
口口口口 |----|
94
口口口口 |①---|
口①②口 |----|
口①②口 |②---|
口口口口 |----|
95
口①口口 |①---|
口口口② |②---|
口③口口 |③---|
口口口④ |④---|
96
口口④口 |①---|
③口口口 |②---|
口口②口 |③---|
①口口口 |④---|
97
口口口口 |①---|
口①①口 |----|
口口口口 |----|
口口口口 |----|
98
口口口口 |①---|
口口口口 |----|
口①①口 |----|
口口口口 |----|

不確定度: 0

最終更新:2014年08月01日 23:53