8 -eight-
Tom-H@ck feat.Nadia

ADVANCED

Level: 7
BPM: 230
Notes: 399

1
口口口口 |----|
口口口口 |----|
口口口口 |----|
口口口口 |----|
2
口口口口 |----|
口口口口 |----|
口口口口 |----|
口口口口 |----|
3
口口口口 |①---|
①口口① |----|
口口口口 |----|
口口口口 |----|
4
口口口口 |①---|
口口④③ |②---|
口口口口 |③---|
口②①口 |④---|
5
口口口口 |①---|
口①口口 |----|
口口口口 |----|
口口口口 |----|
6
口口口口 |----|
口②①口 |----|
口口口口 |①---|
口口口口 |②---|
7
①口口① |①---|
口口口口 |②---|
口③②口 |③---|
口口④口 |④---|
8
①口口① |①---|
口③②口 |②---|
口口口口 |③---|
口口口口 |----|
9
口④②口 |①---|
口口口口 |②---|
口③①口 |③---|
口口口口 |④---|
10
②口口③ |①---|
口口口④ |②---|
①口口口 |③---|
口口口口 |④---|
11
口④②口 |①---|
口口口口 |②---|
口③①① |③---|
口口口口 |④---|
12
②口口③ |①---|
口口口④ |②---|
①口口口 |③---|
口口口口 |④---|
13
口②④口 |①---|
口口口口 |②---|
口①③口 |③---|
口口口口 |④---|
14
③口口② |①---|
④口口口 |②---|
口口口① |③---|
口口口口 |④---|
15
口④②口 |①---|
口口口口 |②---|
口③①口 |③---|
口口口口 |④---|
16
②口口③ |①---|
口口口④ |②---|
①口口口 |③---|
口口口口 |④---|
17
②④口口 |①---|
口口口口 |②---|
①③口口 |③---|
口口口口 |④---|
18
口口②④ |①---|
口⑤⑤口 |②---|
口口①③ |③---|
口口口口 |④---⑤-|
19
口②②口 |----|
口口口口 |----|
口口口口 |①---|
①口口① |----②-|
20
口②②口 |----|
口口口口 |----|
①口口① |①---|
口口口口 |----②-|
21
口口口口 |----|
口口①口 |①---|
口②口口 |②---|
③口口口 |③---|
22
①口口口 |①---|
口②口口 |②---|
口口③口 |③---|
口口口④ |④---|
23
口②④口 |①---|
口口口口 |②---|
口①③口 |③---|
口口口口 |④---|
24
③口口② |①---|
④口口口 |②---|
口口口① |③---|
口口口口 |④---|
25
口④②口 |①---|
口口口口 |②---|
口③①口 |③---|
口口口口 |④---|
26
②口口③ |①---|
口口口④ |②---|
①⑤⑤口 |③---|
口口口口 |④---⑤-|
27
①口口① |----|
口口口口 |----|
口口口口 |①---|
口②②口 |----②-|
28
口②②口 |----|
①口口① |----|
口口口口 |①---|
口口口口 |----②-|
29
口口口口 |----|
口①口口 |①---|
口口②口 |②---|
口口口③ |③---|
30
口口口① |①---|
口口②口 |②---|
口③口口 |③---|
④口口口 |④---|
31
口④②口 |①---|
口口口口 |②---|
口③①口 |③---|
口口口口 |④---|
32
②口口③ |①---|
口口口④ |②---|
①口口口 |③---|
口口口口 |④---|
33
口②④口 |①---|
口口口口 |②---|
口①③口 |③---|
口口口口 |④---|
34
③口口② |①---|
④口口口 |②---|
口口口① |③---|
口口口口 |④---|
35
口口②② |①---|
口口口口 |----|
口①①口 |②---|
口口口口 |----|
36
②②口口 |①---|
口口口口 |----|
口①①口 |②---|
口口口口 |----|
37
口口口口 |①---|
口口②② |----|
口口口口 |②---|
口①①口 |----|
38
口口口口 |①---|
②②口口 |----|
口口口口 |②---|
口①①口 |----|
39
口口②② |①---|
口口口口 |----|
口①①口 |②---|
口口口口 |----|
40
②②口口 |①---|
口口口口 |----|
口①①口 |②---|
口口口口 |----|
41
⑤口口口 |①---|
口③②① |②---|
④③②口 |③---|
口③口口 |④---⑤-|
42
口口口口 |----|
口②②口 |----|
口①①口 |①---|
口口口口 |----②-|
43
口口口口 |----|
口口口口 |----|
口口口口 |----|
口口口口 |----|
44
②口口② |----|
口口口口 |----|
口口口口 |①---|
口①①口 |----②-|
45
口口②口 |----|
口①口口 |①---|
口口③口 |②---|
口口口口 |③---|
46
⑥⑥口口 |①---②-|
口口口口 |③---④-|
口③口④ |----⑤-|
①⑤②口 |----⑥-|
47
口口口口 |----|
口②口口 |①---|
③口①口 |②---|
口口口口 |③---|
48
口口口② |①---|
口口①口 |----②-|
口口口② |----|
口口①口 |----|
49
口②④口 |①---|
口口口口 |②---|
口①③口 |③---|
口口口口 |④---|
50
口口口口 |①---②-|
①口口口 |----③-|
口口口② |----|
口③③口 |----|
51
口④②口 |①---|
口口口口 |②---|
口③①口 |③---|
口口口口 |④---|
52
④口口④ |①---|
口口口① |②---③-|
②口口口 |----|
口③③口 |----④-|
53
口口②口 |----|
口①口口 |①---|
口口③口 |②---|
口口口口 |③---|
54
⑥⑥口口 |①---②-|
口口口口 |③---④-|
口③口④ |----⑤-|
①⑤②口 |----⑥-|
55
口口口口 |----|
口②口口 |①---|
③口①口 |②---|
口口口口 |③---|
56
口口口② |①---|
口口①口 |----②-|
口口口② |----|
口口①口 |----|
57
口口口口 |----|
口口口口 |①---|
①口口② |----②-|
口②①口 |----|
58
口口口口 |①---|
①口口② |----②-|
口②①口 |----③-|
③口口③ |----|
59
口②①口 |①---|
①口口② |----|
口口口口 |②---|
口口口口 |----|
60
③口口③ |①---|
口口口口 |----|
口口口口 |②---|
①②②① |----③-|
61
口口②口 |----|
口①口口 |①---|
口口③口 |②---|
口口口口 |③---|
62
⑥⑥口口 |①---②-|
口口口口 |③---④-|
口③口④ |----⑤-|
①⑤②口 |----⑥-|
63
口口口口 |----|
口②口口 |①---|
③口①口 |②---|
口口口口 |③---|
64
口口口② |①---|
口口①口 |----②-|
口口口② |----|
口口①口 |----|
65
口②④口 |①---|
口口口口 |②---|
口①③口 |③---|
口口口口 |④---|
66
口口口口 |①---②-|
①口口口 |----③-|
口口口② |----|
口③③口 |----|
67
口④②口 |①---|
口口口口 |②---|
口③①口 |③---|
口口口口 |④---|
68
④口口④ |①---|
口口口① |②---③-|
②口口口 |----|
口③③口 |----④-|
69
口口②口 |----|
口①口口 |①---|
口口③口 |②---|
口口口口 |③---|
70
⑥⑥口口 |①---②-|
口口口口 |③---④-|
口③口④ |----⑤-|
①⑤②口 |----⑥-|
71
口口口口 |----|
口②口口 |①---|
③口①口 |②---|
口口口口 |③---|
72
口口口② |①---|
口口①口 |----②-|
口口口② |----|
口口①口 |----|
73
口口口口 |----|
口口口口 |①---|
①口口② |----②-|
口②①口 |----|
74
口口口口 |①---|
①口口② |----②-|
口②①口 |----③-|
③口口③ |----|
75
口②①口 |①---|
①口口② |----|
口口口口 |②---|
口口口口 |----|
76
③口口③ |①---|
口口口口 |----|
口口口口 |②---|
①②②① |----③-|
77
口口口口 |----|
口口口口 |----|
口口口口 |----|
口口口口 |----|
78
口口口口 |----|
口口口口 |----|
口口口口 |①---|
①口口① |----|
79
口口①口 |①---|
⑤②口⑤ |②---|
口口③口 |③---|
口④口口 |④---⑤-|
80
口②②口 |----①-|
口③③口 |----|
口口口口 |②---|
①口口① |③---|
81
①口口① |①---|
③口口③ |----②-|
②口口② |----|
口口口口 |③---|
82
口①①口 |----①-|
口②②口 |----|
口③③口 |②---|
口口口口 |③---|
83
口口口口 |①---|
③口口③ |----②-|
②口口② |----|
①口口① |③---|
84
口①①口 |----①-|
口②②口 |----|
口③③口 |②---|
口口口口 |③---|
85
口口口口 |①---|
③口口③ |----②-|
②口口② |----|
①口口① |③---|
86
口①①口 |----①-|
口②②口 |----|
口③③口 |②---|
口口口口 |③---|
87
口口②① |①---|
③④口口 |②---|
口口口口 |③---|
口口口口 |④---|
88
口口口口 |①---|
口口口口 |②---|
口口②① |③---|
③④口口 |④---|
89
口口④② |①---|
口口口口 |②---|
口口③① |③---|
口口口口 |④---|
90
④②口口 |①---|
口口口口 |②---|
③①口口 |③---|
口口口口 |④---|
91
口口口口 |①---|
口口④② |②---|
口口口口 |③---|
口口③① |④---|
92
口口③③ |①---|
口②口口 |②---|
口口口口 |③---|
口①口口 |----|
93
口口口口 |----|
口口①① |----|
口口口口 |①---|
口口口口 |----|
94
口口口口 |----|
口口口口 |----|
口口口口 |----|
口口口口 |----|
95
口口②① |①---|
③④口口 |②---|
口口口口 |③---|
口口口口 |④---|
96
口口口口 |①---|
口口口口 |②---|
口口②① |③---|
③④口口 |④---|
97
①口口① |①---|
口②②口 |----|
口②②口 |----|
口口口口 |----②-|

不確定度: 0

最終更新:2014年08月01日 23:52