polygon
Sota Fujimori

BASIC

Level: 4
BPM: 174
Notes: 313

1
口口口口 |----|
口口口口 |----|
口口口口 |----|
口口口口 |----|
2
口口口口 |①---|
口①①口 |----|
口①①口 |----|
口口口口 |----|
3
口口口口 |----|
口口口口 |----|
口口口口 |----|
口口口口 |----|
4
口口口口 |①---|
口①②口 |----|
口②①口 |②---|
口口口口 |----|
5
③口口口 |①--②|
②口口口 |--③-|
①口口口 |----|
口口口口 |----|
6
口口口口 |①---|
口②①口 |----|
口①②口 |②---|
口口口口 |----|
7
口口口③ |①--②|
口口口② |--③-|
口口口① |----|
口口口口 |----|
8
口口口口 |①---|
口①②口 |----|
口②①口 |②---|
口口口口 |----|
9
③口口口 |①--②|
②口口口 |--③-|
①口口口 |----|
口口口口 |----|
10
口口口口 |①---|
口②①口 |----|
口①②口 |②---|
口口口口 |----|
11
口口口③ |①--②|
口口口② |--③-|
口口口① |----|
口口口口 |----|
12
口口口口 |①---|
①口②口 |②---|
口口③口 |③---|
口口④口 |④---|
13
口口口口 |①---|
口口口口 |②---|
口口口② |----|
口口口① |----|
14
口口口口 |①---|
口②口① |②---|
口③口口 |③---|
口④口口 |④---|
15
口口口口 |①---|
口口口口 |②---|
②口口口 |----|
①口口口 |----|
16
①口口口 |①---|
①口②口 |②---|
口口③口 |③---|
口口④口 |④---|
17
口口口口 |①---|
口口口口 |②---|
口口口② |----|
口口口① |----|
18
口口口① |①---|
口②口① |②---|
口③口口 |③---|
口④口口 |④---|
19
口口口口 |①---|
口口口口 |②---|
②口口口 |----|
①口口口 |----|
20
口口口口 |①---|
口口口口 |②---|
口口口口 |③---|
①②③④ |④---|
21
口口口口 |①---|
口口口口 |②---|
口口口口 |③---|
①②③④ |④---|
22
口口口口 |①---|
口口口口 |②---|
口口口口 |③---|
①②③④ |④---|
23
口口口口 |①---|
口口口口 |②---|
口口口口 |③---|
①②③④ |④---|
24
口口口口 |①---|
④③②① |②---|
口口口口 |③---|
口口口口 |④---|
25
口口口口 |①---|
④③②① |②---|
口口口口 |③---|
口口口口 |④---|
26
口口口口 |①---|
④③②① |②---|
口口口口 |③---|
口口口口 |④---|
27
口③口口 |①--②|
口口②口 |--③-|
口①口口 |----|
口口口口 |----|
28
口口口口 |①---|
口①①口 |----|
口口口口 |②---|
③②②口 |--③-|
29
口口口口 |-①--|
口口③口 |②--③|
②口①口 |----|
口口口口 |----|
30
口②②口 |①---|
口口口口 |----|
口①①口 |②---|
口口口③ |--③-|
31
口口口口 |-①--|
③口口② |②-③-|
口①口口 |----|
口口口口 |----|
32
口口口口 |①---|
口①①口 |----|
口口口口 |②---|
③②②口 |--③-|
33
口口口口 |-①--|
口口③口 |②--③|
②口①口 |----|
口口口口 |----|
34
口②②口 |①---|
口口口口 |----|
口①①口 |②---|
口口口③ |--③-|
35
口口口口 |-①--|
③口口② |②-③-|
口①口口 |----|
口口口口 |----|
36
口口口口 |①---|
口口口口 |----|
口口②口 |②---|
口①口口 |----|
37
②口口② |①---|
③①口③ |----|
口口口口 |②---|
口口口口 |③---|
38
口口口口 |①---|
口口口口 |----|
口口②口 |②---|
口①口口 |----|
39
②口口② |①---|
③①口③ |----|
口口口口 |②---|
口口口口 |③---|
40
口口口口 |①---|
口口口口 |----|
口②口口 |②---|
口口①口 |----|
41
②口口② |①---|
③口①③ |----|
口口口口 |②---|
口口口口 |③---|
42
口口口口 |①---|
口口口口 |----|
口②口口 |②---|
口口①口 |----|
43
②口口② |①---|
③口①③ |----|
口口口口 |②---|
口口口口 |③---|
44
口②④口 |①---|
口①③口 |②---|
口口口口 |③---|
口口口口 |④---|
45
②口口④ |①---|
口口口口 |②---|
①口口③ |③---|
口口口口 |④---|
46
口②④口 |①---|
口①③口 |②---|
口口口口 |③---|
口口口口 |④---|
47
②口口④ |①---|
口口口口 |②---|
①口口③ |③---|
口口口口 |④---|
48
口②④口 |①---|
口口口口 |②---|
口①③口 |③---|
口口口口 |④---|
49
②口口④ |①---|
口口口口 |②---|
①口口③ |③---|
口口口口 |④---|
50
口口口口 |①--②|
口②④口 |----|
口③①口 |③--④|
口口口口 |----|
51
口口口口 |①---|
①③口② |②---|
①口④② |③-④-|
口⑤口口 |⑤---|
52
①②口口 |①---|
口口口口 |----|
口口口口 |②---|
口口口口 |----|
53
口口①② |①---|
口口口口 |----|
口口口口 |②---|
口口口口 |----|
54
口口口口 |①---|
口口口① |----|
口口口② |②---|
口口口口 |----|
55
口口口口 |①---|
口口口口 |----|
口口口口 |②---|
口口②① |----|
56
口口口口 |①---|
口口口口 |----|
口口口口 |②---|
②①口口 |----|
57
口口口口 |①---|
②口口口 |----|
①口口口 |②---|
口口口口 |----|
58
①②口口 |①---|
口口口口 |----|
口口口口 |②---|
口口口口 |----|
59
口口①口 |①---|
口口口口 |----|
口②②口 |②---|
口口口口 |----|
60
口口①① |①---|
口口②② |②---|
口口③③ |③---|
口口口口 |----|
61
口口口口 |①---|
口口口口 |②---|
①③口口 |③---|
口②口口 |----|
62
①①口口 |①---|
②②口口 |②---|
③③口口 |③---|
口口口口 |----|
63
口口口口 |①---|
口口口口 |②---|
口口③① |③---|
口口②口 |----|
64
口口①① |①---|
口口②② |②---|
口口③③ |③---|
口口口口 |----|
65
口口口口 |①---|
口口口口 |②---|
①③口口 |③---|
口②口口 |----|
66
①①口口 |①---|
②②口口 |②---|
③③口口 |③---|
口口口口 |----|
67
口口口口 |①---|
口口口口 |②---|
口口③① |③---|
口口②口 |----|
68
口口①① |①---|
口口②② |②---|
口口③③ |③---|
口口口口 |----|
69
口口口口 |①---|
口口口口 |②---|
①③口③ |③---|
口②口口 |----|
70
①①口口 |①---|
②②口口 |②---|
③③口口 |③---|
口口口口 |----|
71
口口口口 |①---|
口口口口 |②---|
③口③① |③---|
口口②口 |----|
72
口口①① |①---|
口口②② |②---|
口口③③ |③---|
口口口口 |----|
73
口口口口 |①---|
口口口口 |②---|
①③口③ |③---|
口②口口 |----|
74
①①口口 |①---|
②②口口 |②---|
③③口口 |③---|
口口口口 |----|
75
口口口口 |①---|
口口口口 |②---|
③口③① |③---|
口口②口 |----|
76
口口口口 |①---|
口口口口 |----|
口②②口 |②---|
口①①口 |----|
77
口②②口 |①---|
口①①口 |----|
口口口口 |②---|
口口口口 |----|
78
口口口口 |①---|
口口口口 |----|
②口口② |②---|
①口口① |----|
79
②口口② |①---|
①口口① |----|
口口口口 |②---|
口口口口 |----|
80
口①①口 |①---|
口②②口 |----|
口口口口 |②---|
口口口口 |----|
81
口口口口 |①---|
口口口口 |----|
口①①口 |②---|
口②②口 |----|
82
①口口① |①---|
②口口② |----|
口口口口 |②---|
口口口口 |----|
83
口口口口 |①---|
②③③② |----|
口③③口 |②---|
①口口① |③---|


不确定度: 0

最終更新:2012年11月08日 18:30