ドリームメイカー
TRIPLANE

BASIC

Level: 2
BPM: 143
Notes: 188

1
口口口口 |----|
口口口口 |----|
口口口口 |----|
口口口口 |----|
2
口口口口 |----|
口口口口 |----|
口口口口 |----|
口口口口 |----|
3
口口口口 |①---|
口口口口 |----|
口口①口 |----|
口口口口 |----|
4
口口口口 |①---|
口口口口 |----|
口①口口 |----|
口口口口 |----|
5
口口口口 |①---|
口口①口 |----|
口口口口 |----|
口口口口 |----|
6
口口口口 |①---|
口①口口 |----|
口口口口 |----|
口口口口 |----|
7
口口口口 |①---|
口口口口 |----|
口口口① |----|
口口口口 |----|
8
口口口口 |①---|
口口口口 |----|
口口①口 |----|
口口口口 |----|
9
口口口口 |①---|
口口口口 |----|
口①口口 |----|
口口口口 |----|
10
口口口口 |①---|
口口口口 |----|
①口口口 |----|
口口口口 |----|
11
口口口口 |①---|
口④②口 |②---|
口③①口 |③---|
口口口口 |④---|
12
口口口口 |①---|
口④②口 |②---|
口③①口 |③---|
口口口口 |④---|
13
口口口口 |①---|
口口④② |②---|
口口③① |③---|
口口口口 |④---|
14
口口口口 |①---|
④②口口 |②---|
③①口口 |③---|
口口口口 |④---|
15
口口口口 |①---|
口②①口 |②---|
口④③口 |③---|
口口口口 |④---|
16
口口口口 |①---|
口②①口 |②---|
口④③口 |③---|
口口口口 |④---|
17
口口口口 |①---|
口口口口 |②---|
口④③口 |③---|
口②①口 |④---|
18
口④③口 |①---|
口②①口 |②---|
口口口口 |③---|
口口口口 |④---|
19
口口口口 |①---|
口②②口 |----|
口①①口 |②---|
口口口口 |----|
20
口口口口 |①---|
口口口口 |----|
②①①② |②---|
③口口③ |③---|
21
口口口口 |①---|
口②②口 |----|
口①①口 |②---|
口口口口 |----|
22
口口口口 |①---|
口口口口 |----|
②①①② |②---|
③口口③ |③---|
23
口口口口 |①---|
口①②口 |----|
口②①口 |②---|
口口口口 |----|
24
口口口口 |①---|
口①口口 |----|
②口①② |②---|
③口口③ |③---|
25
口口口口 |①---|
口①②口 |----|
口②①口 |②---|
口口口口 |----|
26
口口口口 |①---|
口①口口 |----|
②口①② |②---|
③口口③ |③---|
27
口口口口 |①---|
口口口口 |----|
口②①口 |②---|
口口口口 |----|
28
口口口口 |①---|
口口口口 |----|
口②①口 |②---|
口口口口 |----|
29
口口④② |①---|
口口③① |②---|
口口口口 |③---|
口口口口 |④---|
30
④②口口 |①---|
③①口口 |②---|
口口口口 |③---|
口口口口 |④---|
31
口口口口 |①---|
口口口口 |----|
口②①口 |②---|
口口口口 |----|
32
口口口口 |①---|
口口口口 |----|
口②①口 |②---|
口口口口 |----|
33
口口④② |①---|
口口③① |②---|
口口口口 |③---|
口口口口 |④---|
34
④②口口 |①---|
③①口口 |②---|
口口口口 |③---|
口口口口 |④---|
35
口口口口 |①---|
口口①口 |----|
口①口口 |----|
口口口口 |----|
36
口口口口 |①---|
口①口口 |----|
口口①口 |----|
口口口口 |----|
37
口口口口 |①---|
口①①口 |----|
口口口口 |----|
口口口口 |----|
38
口口口口 |①---|
口口口口 |----|
②口口② |②---|
①口口① |----|
39
口口口口 |①---|
①口口① |----|
口②②口 |②---|
口口口口 |----|
40
口口口口 |①---|
④口口口 |②---|
口③②① |③---|
口口口口 |④---|
41
口口口口 |①---|
口口口④ |②---|
①②③口 |③---|
口口口口 |④---|
42
口口口口 |①---|
④口口口 |②---|
口③②① |③---|
口口口口 |④---|
43
口口口口 |①---|
口口口④ |②---|
①②③口 |③---|
口口口口 |④---|
44
口②①口 |①---|
口④③口 |②---|
口口口口 |③---|
口口口口 |④---|
45
口口口口 |①---|
口口口口 |②---|
口②①口 |③---|
口④③口 |④---|
46
口口口口 |①---|
口口口① |②---|
④口②口 |③---|
口③口口 |④---|
47
口口口口 |①---|
①口口口 |②---|
口②口④ |③---|
口口③口 |④---|
48
口口口口 |①---|
④口口① |②---|
口③②口 |③---|
口口口口 |④---|
49
口口口口 |①---|
口口口④ |②---|
①②③口 |③---|
口口口口 |④---|
50
口口④② |①---|
口口口口 |②---|
口口③① |③---|
口口口口 |④---|
51
④②口口 |①---|
口口口口 |②---|
③①口口 |③---|
口口口口 |④---|
52
口口①口 |①---|
口②口口 |②---|
口口③口 |③---|
口④口口 |④---|
53
口④口口 |①---|
口口③口 |②---|
口②口口 |③---|
口口①口 |④---|
54
口口①口 |①---|
口②口口 |②---|
口口③口 |③---|
口④口口 |④---|
55
④口口④ |①---|
③口口③ |②---|
②口口② |③---|
①口口① |④---|
56
口口口口 |①---|
口①①口 |----|
口口口口 |----|
口口口口 |----|

不確定度: 0

最終更新:2014年08月01日 23:51