ドリームメイカー
TRIPLANE

ADVANCED

Level: 4
BPM: 143
Notes: 262

1
口口口口 |----|
口口口口 |----|
口口口口 |----|
口口口口 |----|
2
口口口口 |----|
口口口口 |----|
口口口口 |----|
口口口口 |----|
3
口口口口 |①---|
口口口口 |----|
口①①口 |----|
口口口口 |----|
4
口口口口 |①---|
口①①口 |----|
口口口口 |----|
口口口口 |----|
5
口口口口 |①---|
口①口口 |----|
口口①口 |----|
口口口口 |----|
6
口口口口 |①---|
口口①口 |----|
口①口口 |----|
口口口口 |----|
7
口口口口 |①---|
①口口口 |----|
口①口口 |----|
口口口口 |----|
8
口口口口 |①---|
口口口① |----|
口口①口 |----|
口口口口 |----|
9
口口口口 |①---|
口口口口 |----|
口口口口 |----|
①口口① |----|
10
口口口口 |①---|
口①①口 |----|
口口口口 |----|
口口口口 |----|
11
口口口口 |①---|
口④②口 |②---|
口口口口 |③---|
口③①口 |④---|
12
口口口口 |①---|
④口口② |②---|
口口口口 |③---|
③口口① |④---|
13
口④②口 |①---|
口口口口 |②---|
口口口口 |③---|
口③①口 |④---|
14
④口口② |①---|
口口口口 |②---|
口口口口 |③---|
③口口① |④---|
15
④口口口 |①---|
口口口① |②---|
口口②口 |③---|
口③口口 |④---|
16
口口口④ |①---|
①口口口 |②---|
口②口口 |③---|
口口③口 |④---|
17
口口①口 |①---|
口②口口 |②---|
口口③口 |③---|
口④口口 |④---|
18
口口口口 |①---|
③口口③ |②---|
②④④② |③---|
①口口① |④---|
19
口①口② |①-②-|
口③⑤④ |③-④-|
⑧⑦⑥口 |⑤-⑥-|
口口口口 |⑦-⑧-|
20
①口②口 |①-②-|
③口④口 |③-④-|
⑤⑥⑦⑧ |⑤-⑥-|
口口口口 |⑦-⑧-|
21
口①口② |①-②-|
口③⑤④ |③-④-|
⑧⑦⑥口 |⑤-⑥-|
口口口口 |⑦-⑧-|
22
①口②口 |①-②-|
③口④口 |③-④-|
⑤⑥⑦⑧ |⑤-⑥-|
口口口口 |⑦-⑧-|
23
口①口② |①-②-|
口③⑤④ |③-④-|
⑧⑦⑥口 |⑤-⑥-|
口口口口 |⑦-⑧-|
24
①口②口 |①-②-|
③口④口 |③-④-|
⑤⑥⑦⑧ |⑤-⑥-|
口口口口 |⑦-⑧-|
25
口①口② |①-②-|
口③⑤④ |③-④-|
⑧⑦⑥口 |⑤-⑥-|
口口口口 |⑦-⑧-|
26
①口②口 |①-②-|
③口④口 |③-④-|
⑤⑥⑦⑧ |⑤-⑥-|
口口口口 |⑦-⑧-|
27
口口口口 |①---|
口口口口 |②---|
口口口口 |③---|
①②③④ |④---|
28
口口口口 |①---|
口口口口 |②---|
口口口口 |③---|
①②③④ |④---|
29
口口口口 |①---|
②④②④ |②---|
口口口口 |③---|
①口口③ |④---|
30
口口口口 |①---|
②④②④ |②---|
口口口口 |③---|
①口口③ |④---|
31
口口口口 |①---|
口口口口 |②---|
口口口口 |③---|
①②③④ |④---|
32
口口口口 |①---|
口口口口 |②---|
口口口口 |③---|
①②③④ |④---|
33
②④②④ |①---|
口口口口 |②---|
口口口口 |③---|
①口口③ |④---|
34
②④②④ |①---|
口口口口 |②---|
口口口口 |③---|
①口口③ |④---|
35
口口口口 |①---|
口口口口 |----|
口①口口 |----|
口口①口 |----|
36
口口口口 |①---|
口口口口 |----|
口口①口 |----|
口①口口 |----|
37
口口口口 |①---|
①口口① |----|
口口口口 |----|
口口口口 |----|
38
口口口口 |①---|
口口口口 |----|
②口口② |②---|
口①①口 |----|
39
①③②① |①---|
口⑤④口 |----|
口口口口 |②-③-|
口口口口 |④-⑤-|
40
④④口口 |①---|
口口口口 |②---|
口③②① |③---|
口口口口 |④---|
41
口口④④ |①---|
口口口口 |②---|
①②③口 |③---|
口口口口 |④---|
42
口口口口 |①---|
口④③③ |②---|
口口口口 |③---|
①①②口 |④---|
43
④口口④ |①---|
口口口口 |②---|
口③③口 |③---|
②②①① |④---|
44
口口④④ |①---|
口口③口 |②---|
口口口② |③---|
口口①口 |④---|
45
④④口口 |①---|
口③口口 |②---|
②口口口 |③---|
口①口口 |④---|
46
口口口口 |①---|
口口口口 |②---|
口③②口 |③---|
④口口① |④---|
47
口④③口 |①---|
②⑥⑤① |②---|
口口口口 |③-④-|
口口口口 |⑤-⑥-|
48
④④口口 |①---|
口口口口 |②---|
口③②① |③---|
口口口口 |④---|
49
口口④④ |①---|
口口口口 |②---|
①②③口 |③---|
口口口口 |④---|
50
口口口口 |①---|
④②④② |②---|
口口口口 |③---|
③口口① |④---|
51
④②④② |①---|
口口口口 |②---|
口口口口 |③---|
③口口① |④---|
52
④④口口 |①---|
口口口① |②---|
口口②口 |③---|
口③口口 |④---|
53
口口④④ |①---|
①口口口 |②---|
口②口口 |③---|
口口③口 |④---|
54
口①口口 |①---|
口口②口 |②---|
口③口口 |③---|
口口④口 |④---|
55
④口口④ |①---|
③口口③ |②---|
②口口② |③---|
①口口① |④---|
56
口口口口 |①---|
口①①口 |----|
口口口口 |----|
口口口口 |----|

不確定度: 0

最終更新:2014年08月01日 23:51