DNA狂詩曲
ももいろクローバーZ

BASIC

Level: 3
BPM: 170
Notes: 217

1
口口口口 |----|
口口口口 |----|
口口口口 |----|
口口口口 |----|
2
口口口口 |①---|
口①口口 |----|
口口口口 |----|
口口口口 |----|
3
口口口口 |①---|
口口口口 |----|
口①口口 |----|
口口口口 |----|
4
口口口口 |①---|
口口①口 |----|
口口口口 |----|
口口口口 |----|
5
口口口口 |①---|
口口口口 |----|
口口①口 |----|
口口口口 |----|
6
口口口口 |①---|
口①①口 |----|
口口口口 |----|
口口口口 |----|
7
口口口口 |①---|
口口口口 |----|
口①①口 |----|
口口口口 |----|
8
口口口口 |①---|
口口口口 |----|
①口口① |----|
口口口口 |----|
9
口口口口 |①---|
口①①口 |----|
口口口口 |----|
口口口口 |----|
10
口口口口 |①---|
口①口口 |----|
口②口口 |②---|
口口口口 |----|
11
口口口口 |①---|
口口口口 |----|
②口口② |②---|
口①口口 |----|
12
口口①口 |①---|
口口②口 |----|
口口口口 |②---|
口口口口 |----|
13
口口口口 |①---|
口口口口 |----|
②口①② |②---|
口口口口 |----|
14
口①口口 |①---|
口②口口 |----|
口口口口 |②---|
口口口口 |----|
15
口口口口 |①---|
口口口口 |----|
口①口口 |②---|
口②口口 |----|
16
口口口口 |①---|
口口口口 |----|
①口口① |----|
口口口口 |----|
17
口口口口 |①---|
①口口① |----|
口口口口 |----|
口口口口 |----|
18
口口口口 |①---|
口①①口 |----|
口口口口 |----|
口口口口 |----|
19
口口口口 |①---|
口口口口 |----|
①②口口 |②---|
口口口口 |----|
20
口口口口 |①---|
口①①口 |----|
口口口口 |----|
口口口口 |----|
21
口口口口 |----|
口口口口 |----|
口口口① |①---|
口口口口 |----|
22
口口口口 |①---|
口口口口 |----|
口②①口 |②---|
口口口口 |----|
23
口口口口 |①---|
②口口口 |----|
①口口口 |②---|
口口口口 |----|
24
口口口口 |①---|
口①②口 |----|
口口口口 |②---|
口口口口 |----|
25
口口口口 |①---|
口口口口 |----|
口①①口 |----|
口口口口 |----|
26
口口口口 |①---|
①口口① |----|
口口口口 |----|
口口口口 |----|
27
口①②口 |①---|
口口口口 |----|
口口口口 |②---|
口口口口 |----|
28
口口口口 |①---|
①口口① |----|
口口口口 |----|
口口口口 |----|
29
口口口口 |----|
口①口口 |----|
口口口口 |①---|
口口口口 |----|
30
口口口口 |①---|
口口①口 |----|
口②口口 |②---|
口口口口 |----|
31
口口口口 |①---|
口口口口 |----|
口口①② |②---|
口口口口 |----|
32
口口口口 |①---|
口口②① |----|
口口口口 |②---|
口口口口 |----|
33
口口口口 |①---|
口口口口 |----|
口①①口 |----|
口口口口 |----|
34
口口口口 |①---|
①口口① |----|
口口口口 |----|
口口口口 |----|
35
口口口口 |①---|
①①口口 |----|
口口口口 |②---|
②②口口 |----|
36
口口口口 |①---|
口口口口 |----|
口①②口 |②---|
口口口口 |----|
37
口口口口 |①---|
①①口口 |----|
口口口口 |----|
口口口口 |----|
38
口口口口 |①---|
口口①② |----|
口口口口 |②---|
口口口口 |----|
39
口口②② |①---|
口口口口 |----|
口口①① |②---|
口口口口 |----|
40
口口口口 |①---|
口②①口 |----|
口口口口 |②---|
口口口口 |----|
41
口口①① |①---|
口口口口 |----|
口口口口 |----|
口口口口 |----|
42
口口口口 |①---|
口①口口 |----|
口口②口 |②---|
口口口口 |----|
43
口口口口 |①---|
口口口口 |----|
口口口口 |----|
口①①口 |----|
44
口口口口 |----|
口口口口 |----|
口口口口 |----|
口口口口 |----|
45
口口口口 |①---|
①口②口 |----|
口③③口 |②---|
口③③口 |--③-|
46
口①①口 |----|
口①①口 |----|
口口口口 |----|
口口口口 |--①-|
47
口口口口 |----|
口①①口 |----|
口①①口 |----|
口口口口 |--①-|
48
口口口口 |----|
①口口① |----|
①口口① |----|
口口口口 |--①-|
49
口口口口 |----|
口口口口 |----|
口口口口 |----|
口口口口 |----|
50
口口口口 |①---|
①口③口 |②---|
②口④口 |③---|
口口口口 |④---|
51
口口口口 |①---|
口①口③ |②---|
口②口④ |③---|
口口口口 |④---|
52
口口口口 |①---|
口口口口 |②---|
口③④口 |③---|
口①②口 |④---|
53
③口口③ |①---|
②①①② |②---|
口口口口 |③---|
口口口口 |----|
54
口①口③ |①---|
口②口④ |②---|
口口口口 |③---|
口口口口 |④---|
55
③口①口 |①---|
④口②口 |②---|
口口口口 |③---|
口口口口 |④---|
56
口口口口 |①---|
口③④口 |②---|
口①②口 |③---|
口口口口 |④---|
57
口①①口 |①---|
②口口② |②---|
③口口③ |③---|
口口口口 |----|
58
口口口口 |①---|
口口口口 |----|
②口③口 |②---|
①①①① |③---|
59
口口口口 |①---|
④①③② |②---|
口口口口 |③---|
口口口口 |④---|
60
①①①① |①---|
②口③口 |----|
口口口口 |②---|
口口口口 |③---|
61
口口口口 |①---|
口口口口 |②---|
④①③② |③---|
口口口口 |④---|
62
口口口口 |①---|
①②③① |----|
口口口口 |②---|
口口口口 |③---|
63
①②③① |①---|
口口口口 |----|
口口口口 |②---|
口口口口 |③---|
64
口口口口 |①---|
①口口② |----|
①口口② |②---|
口口口口 |----|
65
口口口口 |①---|
口③③口 |②---|
口②②口 |③---|
口①①口 |----|
66
口口口口 |①---|
①口口② |----|
①口口② |②---|
口口口口 |----|
67
口④④口 |①---|
口③③口 |②---|
口②②口 |③---|
口①①口 |④---|
68
①口口① |①---|
口口口口 |----|
口口口口 |----|
口口口口 |----|
69
口口口口 |----|
口口口口 |----|
口口口口 |----|
口口口口 |----|
70
口口口口 |①---|
口①②口 |②---|
口③④口 |③---|
口口口口 |④---|
71
口口口口 |①---|
④口口④ |②---|
③口口③ |③---|
口①②口 |④---|
72
口口口口 |①---|
口①②口 |②---|
口③④口 |③---|
口口口口 |④---|
73
口口口口 |①---|
口口口口 |②---|
口③④口 |③---|
口①②口 |④---|
74
口口口口 |①---|
①口口① |----|
口口口口 |----|
口口口口 |----|
75
①口口① |①---|
口口口口 |----|
口口口口 |----|
口口口口 |----|
76
口口口口 |①---|
口口①① |----|
①①口口 |----|
口口口口 |----|
77
口口口口 |----|
口口口口 |----|
口口口口 |----|
口口口口 |----|
78
口口口口 |①---|
口口口口 |----|
口口口① |----|
口口口口 |----|

不確定度: 0

最終更新:2014年08月01日 23:50