DNA狂詩曲
ももいろクローバーZ

ADVANCED

Level: 6
BPM: 170
Notes: 416

1
口口口口 |----|
口口口口 |----|
口口口口 |----|
口口口口 |----|
2
口①口口 |①---|
口口②口 |----|
口口口口 |②---|
口口口口 |----|
3
口口口口 |①---|
口口口口 |----|
②①①② |②---|
口口口口 |----|
4
口口口口 |①---|
口①口口 |----|
口口②口 |②---|
口口口口 |----|
5
口口口口 |①---|
口口口口 |----|
②口口② |②---|
口①①口 |----|
6
口口口口 |①---|
口①①口 |----|
口口口口 |----|
口口口口 |----|
7
口口口口 |①---|
口口口口 |----|
①①①① |----|
口口口口 |----|
8
口口口口 |①---|
①①①① |----|
口②②口 |②---|
口口口口 |----|
9
口口口口 |①---|
口口口口 |----|
①口口① |----|
口口口口 |----|
10
口②②口 |①---|
①④④口 |②---|
口口口③ |③---|
口口口口 |④---|
11
口口口口 |①---|
口④④口 |②---|
③②②③ |③---|
①口口口 |④---|
12
口②②口 |①---|
①④④口 |②---|
口口口③ |③---|
口口口口 |④---|
13
口口口口 |①---|
口④④口 |②---|
③②②③ |③---|
①口口口 |④---|
14
口②②口 |①---|
①④④口 |②---|
口口口③ |③---|
口口口口 |④---|
15
口口口口 |①---|
口口口口 |②---|
口②②③ |③---|
①④④口 |④---|
16
口口口口 |①-②-|
口①②口 |③-④-|
口③④口 |----|
口口口口 |----|
17
口口口口 |①-②-|
口口口口 |③-④-|
口①②口 |----|
口③④口 |----|
18
口口口口 |①---|
口口口口 |----|
①口口① |----|
口口口口 |----|
19
口口口口 |①---|
口口口口 |----|
口口②② |②---|
①①口口 |----|
20
③③口口 |①---|
①口②口 |②-③-|
口口口口 |----|
口口口口 |----|
21
①口口口 |----|
①口口口 |----|
口口口口 |①---|
口口口口 |----|
22
口口①口 |①---|
口口①口 |----|
口②口口 |②---|
口②口口 |----|
23
口口口口 |①---|
②②③③ |----|
口口口① |②---|
口口口① |③---|
24
①①口口 |①---|
口口口口 |----|
②口口② |②---|
口口口口 |----|
25
①口口① |①---|
口口口口 |----|
口②②口 |----|
口口口口 |②---|
26
①口口① |①---|
口口②② |----|
口口口口 |----|
口口口口 |②---|
27
口口口口 |①---|
口口口口 |----|
①①口口 |②---|
口口②② |----|
28
③③口口 |①---|
①口②口 |②-③-|
口口口口 |----|
口口口口 |----|
29
口①口口 |----|
口①口口 |----|
口口口口 |①---|
口口口口 |----|
30
口口口① |①---|
口口口① |----|
②口口口 |②---|
②口口口 |----|
31
口口口口 |①---|
口②口口 |----|
口②①口 |②---|
口口①口 |----|
32
口口口口 |①---|
口口①口 |----|
口口①口 |②---|
口②②口 |----|
33
口口口口 |①---|
口口口口 |----|
①口口① |----|
口口口口 |----|
34
①口口① |①---|
口口口口 |----|
口口口口 |----|
口口口口 |----|
35
口口口口 |①-②-|
④①①④ |③---|
⑤②②⑤ |④-⑤-|
⑥③③⑥ |⑥---|
36
口口口口 |①-②-|
⑦②①⑦ |③-④-|
口④③口 |⑤---|
⑥口⑤⑥ |⑥-⑦-|
37
口口③口 |----|
口②口口 |----|
口口①口 |--①-|
口口口口 |②-③-|
38
口⑥⑥口 |①-②-|
口口口口 |③-④-|
①②④③ |⑤---|
口⑤⑤口 |⑥---|
39
口⑥⑥口 |①-②-|
③⑤⑤③ |③---|
②④④② |④-⑤-|
①口口① |⑥---|
40
口⑦⑦口 |①-②-|
②⑥⑥④ |③-④-|
①口口③ |⑤---|
口⑤⑤口 |⑥-⑦-|
41
①②口口 |----|
口口口③ |----|
口口口口 |--①-|
口口口口 |②-③-|
42
口口口口 |①---|
口口①口 |②---|
②②③③ |③---|
口④④口 |④---|
43
口口口口 |①---|
口①①口 |----|
口口口口 |----|
口口口口 |----|
44
口口口口 |----|
口口口口 |----|
口口口口 |----|
口口口口 |----|
45
④口口④ |----|
口口口口 |①---|
②②①① |②---|
口③③口 |③-④-|
46
③口口③ |----|
口口口口 |①---|
口①①口 |②---|
口②②口 |--③-|
47
③③③③ |----|
口口口口 |①---|
①口口① |②---|
②口口② |--③-|
48
口口口口 |----|
③①①③ |①---|
口②②口 |②---|
口口口口 |--③-|
49
①②③口 |----|
口口口口 |----|
口口口口 |--①-|
口口口口 |②-③-|
50
口口⑥⑥ |①-②-|
⑤⑤口口 |③-④-|
口③④口 |⑤-⑥-|
⑦①②口 |--⑦-|
51
口口⑤⑤ |--①-|
④④口口 |②-③-|
口②③口 |④-⑤-|
⑥口①口 |--⑥-|
52
口口口口 |--①-|
口④口⑤ |②-③-|
⑥⑥③口 |④---|
口②①口 |⑤-⑥-|
53
④④③③ |--①-|
②②口口 |②-③-|
⑤口口口 |④---|
口口①① |--⑤-|
54
口口⑤⑤ |--①-|
④④口口 |②-③-|
口口①口 |④-⑤-|
⑥②③口 |--⑥-|
55
口口⑤⑤ |--①-|
④④口口 |②-③-|
口②③口 |④-⑤-|
⑥口①⑥ |--⑥-|
56
口⑥口⑤ |--①-|
口④口口 |②-③-|
口②③口 |④---|
口口①口 |⑤-⑥-|
57
口口口口 |--①-|
口②①口 |②-③-|
口口③口 |④---|
④⑤⑤④ |⑤---|
58
口口口口 |①---|
①口口① |--②-|
口口口口
②口口口

口口口口
⑥口口口
口④口⑤ |③-④-|
口口③口 |⑤-⑥-|
59
②③口口 |①---|
口口①口 |②-③-|
口④④口 |----|
口口口口 |④---|
60
①口口① |①---|
口口口口 |--②-|
②口口口
口口口口

⑥口口口
口④口⑤
口口③口 |③-④-|
口口口口 |⑤-⑥-|
61
口口①口 |①---|
口口口口 |②-③-|
口口②③ |----|
口④④口 |④---|
62
口②口口 |①---|
①口③① |--②-|
口④④口 |--③-|
口口口口 |④---|
63
①口口① |①---|
口口⑤口 |--②-|
口④③口 |③-④-|
口②口口 |⑤---|
64
①④④② |①---|
口口口口 |②-③-|
口③③口 |--④-|
②⑤⑤① |--⑤-|
65
口口口口 |--①-|
①②④③ |②-③-|
口口口口 |④---|
口口口口 |----|
66
②④④① |①---|
口⑤⑤口 |②-③-|
口③③口 |--④-|
①口口② |--⑤-|
67
口口口口 |--①-|
口口口口 |②-③-|
⑤⑤⑤⑤ |④---|
①②④③ |⑤---|
68
①①①① |①---|
口口口口 |----|
口口口口 |----|
口口口口 |----|
69
口口口口 |----|
口口口口 |----|
口口口口 |----|
口口口口 |----|
70
①①②② |①-②-|
口口口口 |--③-|
口口口口
口口③③

口口⑤⑤
④④口口
口口口口 |--④-|
口口口口 |--⑤-|
71
口口口口 |--①-|
③口口③ |--②-|
①①②② |③---|
④口口④ |④---|
72
②②①① |①-②-|
④④⑤⑤ |③-④-|
⑥⑥③③ |--⑤-|
口口口口 |--⑥-|
73
口口口口 |--①-|
口口口口 |--②-|
④④③③ |--③-|
②②①① |--④-|
74
口②①口 |①-②-|
口④③口 |③-④-|
口口口口 |----|
口口口口 |----|
75
口口⑤⑤ |①-②-|
口口口口 |③-④-|
口②①口 |----|
口④③口 |⑤---|
76
口口口口 |①---|
口口口口 |----|
①①口口 |----|
口口口口 |----|
77
口口口口 |----|
口口口口 |----|
口口口口 |----|
口口口口 |----|
78
口口口口 |①---|
口①①口 |----|
口口口口 |----|
口口口口 |----|

不確定度: 0

最終更新:2014年08月01日 23:50