ブルー・フィールド
Trident (渕上 舞・沼倉愛美・山村 響)

BASIC

Level: 2
BPM: 135
Notes: 133

1
口口口口 |----|
口口口口 |----|
口口口口 |----|
口口口口 |----|
2
口口口口 |①---|
口口口口 |----|
口①①口 |----|
口口口口 |----|
3
口口口口 |①---|
口①①口 |----|
口口口口 |----|
口口口口 |----|
4
口口口口 |①---|
口口口口 |----|
口①①口 |----|
口口口口 |----|
5
口口口口 |①---|
口①①口 |----|
口口口口 |----|
口口口口 |----|
6
①②口口 |①---|
口口口口 |----|
口口口口 |②---|
口口口口 |----|
7
口口①② |①---|
口口口口 |----|
口口口口 |②---|
口口口口 |----|
8
口口口口 |①---|
口口②① |----|
口口口口 |②---|
口口口口 |----|
9
口口口口 |①---|
②①口口 |----|
口口口口 |②---|
口口口口 |----|
10
口口口口 |①---|
口口口口 |----|
①②口口 |②---|
口口口口 |----|
11
口口口口 |①---|
口口口口 |----|
口口①② |②---|
口口口口 |----|
12
口口口口 |①---|
口口口口 |----|
口口口口 |②---|
口口②① |----|
13
口口口口 |①---|
口口口口 |----|
口口口口 |②---|
②①口口 |----|
14
口口口口 |①---|
口口口口 |----|
口①②口 |②---|
口口口口 |----|
15
口口口口 |①---|
①②③口 |②---|
口口口口 |③---|
口口口口 |----|
16
口口口口 |①---|
口口口口 |----|
口①②口 |②---|
口口口口 |----|
17
口口口口 |①---|
口口口口 |②---|
口口口口 |③---|
①②③口 |----|
18
口口口口 |①---|
口口口口 |----|
口①②口 |②---|
口口口口 |----|
19
口口口口 |①---|
④③②① |②---|
口口口口 |③---|
口口口口 |④---|
20
口①①口 |----|
口②②口 |①---|
口口口口 |----|
口口口口 |②---|
21
口口口口 |----|
口口口口 |①---|
口①①口 |----|
口②②口 |②---|
22
口口口口 |----|
口口口口 |①---|
①口口口 |----|
口口口口 |----|
23
口口口口 |①---|
口①口口 |----|
口口口口 |----|
口口口口 |----|
24
口口口口 |①---|
口口口口 |②---|
口①口② |----|
口口口口 |----|
25
口口口口 |①---|
口口①口 |----|
口口②口 |----|
口口口口 |②---|
26
口口口口 |----|
口口①口 |----|
口口口口 |①---|
口口口口 |----|
27
口口口口 |①---|
口①口口 |----|
口口②口 |②---|
口口口口 |----|
28
口口口口 |①---|
口口口口 |----|
②①口② |②---|
口口口口 |----|
29
口②②口 |①---|
①③③① |②---|
口④④口 |③---|
口口口口 |④---|
30
口口口口 |①---|
口口口口 |②---|
③口口④ |③---|
①口口② |④---|
31
③口口④ |①---|
①口口② |②---|
口口口口 |③---|
口口口口 |④---|
32
口①①口 |----|
口②②口 |①---|
口口口口 |----|
口口口口 |②---|
33
口口口口 |①---|
口口口口 |②---|
口口口口 |③---|
③②①口 |----|
34
口口口口 |①---|
口口口口 |----|
口②①口 |②---|
口口口口 |----|
35
口口口口 |①---|
②口口① |----|
口口口口 |②---|
口口口口 |----|
36
口口口① |①---|
口②②口 |----|
口口口口 |②---|
口口口口 |----|
37
①②②① |①---|
口③③口 |②---|
口④④口 |③---|
口口口口 |④---|
38
口口口口 |①---|
口口口口 |②---|
③口口④ |③---|
①口口② |④---|
39
③口口④ |①---|
①口口② |②---|
口口口口 |③---|
口口口口 |④---|
40
口①①口 |----|
口②②口 |①---|
口口口口 |----|
口口口口 |②---|
41
口口口口 |①---|
口口口口 |②---|
口口口口 |③---|
③②①口 |----|
42
口口口口 |①---|
口口口口 |----|
口②①口 |②---|
口口口口 |----|
43
口口口口 |①---|
②口口① |----|
口口口口 |②---|
口口口口 |----|
44
②口口① |①---|
口口口口 |----|
口口口口 |②---|
口口口口 |----|
45
口口口口 |①---|
口①①口 |----|
口口口口 |----|
口②②口 |②---|
46
口口口口 |①---|
②口口口 |----|
口口口① |②---|
口口口口 |----|
47
口口①口 |①---|
口②口口 |----|
口口口口 |②---|
口口口口 |----|
48
口口口口 |①---|
①口口① |--②-|
②口口② |----|
口③③口 |--③-|

不確定度: 0

最終更新:2014年08月01日 23:47