ブルー・フィールド
Trident (渕上 舞・沼倉愛美・山村 響)

ADVANCED

Level: 5
BPM: 135
Notes: 250

1
口口口口 |----|
口口口口 |----|
口口口口 |----|
口口口口 |----|
2
口口口口 |①---|
口①②口 |----|
口①②口 |②---|
口口口口 |----|
3
①①②② |①---|
口口口口 |----|
口口口口 |②---|
口口口口 |----|
4
口口口口 |①---|
口①②口 |----|
口①②口 |②---|
口口口口 |----|
5
口口口口 |①---|
口口口口 |----|
口口口口 |②---|
①①②② |----|
6
口口④口 |①---|
③口口口 |②---|
①口口② |③---|
口口口口 |④---|
7
口口口口 |①---|
口①口口 |②---|
口口④口 |③---|
口③②口 |④---|
8
口口④口 |①---|
③口口口 |②---|
①口口② |③---|
口口口口 |④---|
9
口口口口 |①---|
口①口口 |②---|
口口④口 |③---|
口③②口 |④---|
10
口口④口 |①---|
③口口口 |②---|
①口口② |③---|
口口口口 |④---|
11
口口口口 |①---|
口①口口 |②---|
口口④口 |③---|
口③②口 |④---|
12
口口④口 |①---|
③口口口 |②---|
①口口② |③---|
口口口口 |④---|
13
口口口口 |①---|
口①口口 |②---|
口口④口 |③---|
口③②口 |④---|
14
①①口口 |①---|
口口②② |----|
口③④口 |②---|
口口口口 |③-④-|
15
口口口口 |①-②-|
口口口口 |③-④-|
口口口口 |----|
③①②④ |----|
16
口口①① |①---|
②②口口 |----|
口④③口 |②---|
口口口口 |③-④-|
17
口口口口 |①-②-|
口口口口 |③-④-|
口口口口 |----|
④②①③ |----|
18
①①口口 |①---|
口口②② |----|
口③④口 |②---|
口口口口 |③-④-|
19
口⑦口口 |①-②-|
口口⑥口 |③-④-|
口⑤口口 |--⑤-|
③①②④ |⑥-⑦-|
20
口口⑦① |--①-|
②⑥口口 |②-③-|
口口⑤③ |④-⑤-|
口④口口 |⑥-⑦-|
21
①口口口 |①---|
口口口口 |②-③-|
口③②口 |----|
口口口口 |----|
22
口口口口 |----|
③口口口 |①---|
口②口口 |②---|
①口口口 |③---|
23
口①口口 |①---|
③口口口 |②---|
口②口口 |③---|
⑤④口口 |④-⑤-|
24
口口口口 |----|
口口口③ |①---|
口口②口 |②---|
口口口① |③---|
25
口口⑤④ |①---|
口口③口 |②---|
口口口② |③---|
口口①口 |④-⑤-|
26
口口口口 |----|
口③④口 |--①-|
口口口口 |②---|
口①②口 |③-④-|
27
口①①口 |--①-|
口口口口 |--②-|
④②②④ |--③-|
口③③口 |--④-|
28
③口口口 |----|
口①②口 |--①-|
口口口口 |②---|
口口口口 |--③-|
29
口②口① |①---|
口口③② |②---|
③④口口 |③---|
口口口④ |④---|
30
口①口口 |①-②-|
③口口口 |③-④-|
口口口④
口口②口

口口口口
口口口⑥
⑤口口口 |⑤-⑥-|
口⑦⑧口 |⑦-⑧-|
31
口口口④ |①-②-|
口③口口 |③-④-|
口①②口
口口口口

口口口口
⑤口口口
口口⑥口 |--⑤-|
口⑦口口 |⑥-⑦-|
32
①口口① |--①-|
②口口② |-②--|
③口口③ |③--④|
④口⑤④ |--⑤-|
33
口口口口 |①-②-|
①③④口 |③-④-|
口口②⑥ |----|
口⑤口口 |⑤-⑥-|
34
口口口④ |----|
②③口口 |--①-|
口口①口 |②---|
口口口口 |③-④-|
35
口①①口 |--①-|
③口口③ |--②-|
④口口④ |--③-|
口②②口 |--④-|
36
口口口口 |----|
口口③口 |--①-|
口口③口 |②---|
口②①口 |--③-|
37
口②口口 |①---|
口①口② |②---|
口①口口
口口口口

口口口口
口口③口
③④口口 |③---|
口口口④ |④---|
38
口①口口 |①-②-|
③口口口 |③-④-|
口口口④
口口②口

口口口口
口口口⑥
⑤口口口 |⑤-⑥-|
口⑦⑧口 |⑦-⑧-|
39
口口口④ |①-②-|
口③口口 |③-④-|
口①②口
口口口口

口口口口
⑤口口口
口口⑥口 |--⑤-|
口⑦口口 |⑥-⑦-|
40
①⑤⑤① |--①-|
②口口② |-②--|
③口口③ |③--④|
④口口④ |--⑤-|
41
口口口口 |①-②-|
口①④口 |③-④-|
口③②⑥ |----|
口⑤口口 |⑤-⑥-|
42
口口口④ |----|
②③口口 |--①-|
口口①口 |②---|
口口口口 |③-④-|
43
口①①口 |--①-|
③口口④ |--②-|
口口口口 |--③-|
口②②口 |④---|
44
①口口② |--①-|
口口口口 |②---|
口口口口 |③-④-|
③口口④ |----|
45
口口口口 |①---|
口①①口 |----|
口口口口 |----|
口②②口 |②---|
46
口口④口 |①---|
③口口口 |②---|
①口口② |③---|
口口口口 |④---|
47
口口口口 |①---|
口①口口 |②---|
口口④口 |③---|
口③②口 |④---|
48
口口口口 |①---|
口①①口 |--②-|
口口口口
②口口②

③口口③
口④④口
口④④口 |--③-|
口口口口 |--④-|

不確定度: 0

最終更新:2014年08月01日 23:47