天ノ弱
164 feat. GUMI

BASIC

Level: 3
BPM: 200-205
Notes: 196

全程BPM在200-205間飄忽不定
1
口口口口 |----|
口口口口 |----|
口口口口 |----|
口口口口 |----|
2
口口口口 |----|
口口口口 |----|
口口口口 |----|
口口口口 |----|
3
口口口口 |①---|
口①口口 |----|
口口口口 |----|
口口口口 |----|
4
口口口口 |①---|
口口口口 |----|
口①口口 |----|
口口口口 |----|
5
口口口口 |①---|
口口①口 |----|
口口口口 |----|
口口口口 |----|
6
口口口口 |①---|
口口口口 |----|
口口①口 |----|
口口口口 |----|
7
口口口口 |①---|
①口口口 |----|
口口口口 |----|
口口口口 |----|
8
口口口口 |①---|
口口口口 |----|
①口口口 |----|
口口口口 |----|
9
口口口口 |①---|
口口口① |----|
口口口口 |----|
口口口口 |----|
10
口口口口 |①---|
口口口口 |----|
口口口① |----|
口口口口 |----|
11
口口口口 |①---|
口口口口 |----|
口口口口 |②---|
①②口口 |----|
12
口口口口 |①---|
口口口口 |----|
口口①② |②---|
口口口口 |----|
13
口口口口 |①---|
口口②① |----|
口口口口 |②---|
口口口口 |----|
14
②①口口 |①---|
口口口口 |----|
口口口口 |②---|
口口口口 |----|
15
口口口口 |①---|
①②口口 |----|
口口口口 |②---|
口口口口 |----|
16
口口口口 |①---|
口口口口 |----|
口口①② |②---|
口口口口 |----|
17
口口口口 |①---|
口口口口 |----|
口口口口 |②---|
口口②① |----|
18
口口④口 |①---|
口③口口 |②---|
口口②口 |③---|
口①口口 |④---|
19
口口口口 |①---|
①口口① |----|
口口口口 |----|
口口口口 |----|
20
口口口口 |----|
口口口口 |----|
口口口口 |----|
口口口口 |----|
21
口口口口 |①---|
口①①口 |----|
口口口口 |----|
口口口口 |----|
22
口口口口 |----|
口口口口 |----|
口口口口 |----|
口口口口 |----|
23
口口口口 |①---|
口口口口 |----|
口①①口 |----|
口口口口 |----|
24
口口口口 |----|
口口口口 |----|
口口口口 |----|
口口口口 |----|
25
口口口口 |①---|
口口口口 |----|
口口口口 |----|
口①①口 |----|
26
口口口口 |----|
口口口口 |----|
口口口口 |----|
口口口口 |----|
27
口口口口 |①---|
①①口口 |----|
口口口口 |----|
口口口口 |----|
28
口口口口 |①---|
口口口口 |----|
①①口口 |----|
口口口口 |----|
29
口口口口 |①---|
口口口口 |----|
口口口口 |----|
①①口口 |----|
30
口口口口 |①---|
口口口口 |----|
口口口口 |----|
口口①① |----|
31
口口口口 |①---|
口口①① |----|
口口口口 |----|
口口口口 |----|
32
口口口口 |①---|
口口口口 |----|
口口①① |----|
口口口口 |----|
33
口口口口 |①---|
口口口口 |----|
口口口口 |----|
口口①① |----|
34
口口口口 |①---|
口口口口 |----|
口口口口 |----|
①①口口 |----|
35
口口口口 |①---|
口口口口 |----|
①①口口 |----|
口口口口 |----|
36
口口口口 |①---|
口①①口 |----|
口口口口 |----|
口口口口 |----|
37
口口①① |①---|
口口口口 |----|
口口口口 |----|
口口口口 |----|
38
口口口口 |①---|
口①①口 |----|
口口口口 |----|
口口口口 |----|
39
口口口口 |①---|
口口口口 |----|
口口①① |----|
口口口口 |----|
40
口口口口 |①---|
口①①口 |----|
口口口口 |----|
口口口口 |----|
41
①①口口 |①---|
口口口口 |----|
口口口口 |----|
口口口口 |----|
42
口口口口 |①---|
口①①口 |----|
口②②口 |②---|
口口口口 |----|
43
口口口口 |①---|
口口口口 |----|
口口口口 |----|
口①①口
44
口口口口 |----|
口口口口 |①---|
口口①口 |----|
口口口口
45
口口口口 |----|
口口口口 |----|
口口口口 |----|
口口口口
46
口口口口 |----|
口①口口 |①---|
口口口口 |----|
口口口口
47
①口口① |①---|
口口口口 |----|
口口口口 |----|
口口口口
48
口口口口 |①---|
①口口① |----|
口口口口 |----|
口口口口
49
口口口口 |----|
口②①口 |①---|
口口③口 |②---|
口口口口 |③---|
50
口口口口 |①---|
口口口口 |----|
②①口② |②---|
口口口口 |----|
51
口②口口 |①---|
口口口口 |----|
口口口口 |----|
口口①① |②---|
52
口口口口 |①---|
口①口口 |----|
②口口② |②---|
口口口口 |----|
53
口口②口 |①---|
口口口口 |----|
口口口口 |----|
①①口口 |②---|
54
口口口口 |①---|
口口①口 |----|
②口口② |②---|
口口口口 |----|
55
口①口口 |①---|
口口口口 |②---|
口口②口 |----|
口口口口 |----|
56
口口口口 |①---|
口①①口 |----|
口口口口 |----|
口口口口 |----|
57
口口口口 |①---|
②口口② |----|
①口口① |②---|
口口口口 |----|
58
①口口① |①---|
口口口口 |----|
②口口② |②---|
口口口口 |----|
59
口②口口 |①---|
口口口口 |----|
口口口口 |----|
口口①① |②---|
60
口口口口 |①---|
口①口口 |----|
②口口② |②---|
口口口口 |----|
61
口口②口 |①---|
口口口口 |----|
口口口口 |----|
①①口口 |②---|
62
口口口口 |①---|
口口①口 |----|
②口口② |②---|
口口口口 |----|
63
口口口口 |①---|
口口口口 |----|
口口口口 |----|
①口口① |----|
64
口口口口 |----|
口口口口 |----|
口口①口 |①---|
口口口口 |----|
65
口口口口 |①---|
口②①口 |----|
口口口口 |②---|
口口口口 |----|
66
口口口口 |①---|
口②③口 |----|
口①口口 |②---|
口口口口 |③---|
67
口口口口 |①---|
①口口④ |②---|
口②口口 |③---|
口口③口 |④---|
68
口口口口 |①---|
口③②口 |----|
口口口① |②---|
口口口口 |③---|
69
口口口口 |①---|
④口口① |②---|
口口②口 |③---|
口③口口 |④---|
70
口口口口 |①---|
口②②口 |----|
①口口口 |②---|
口口口口 |----|
71
口口①口 |①---|
口口口口 |②---|
口②口口 |----|
口口口口 |----|
72
口口口口 |①---|
口口口① |②---|
口口口② |----|
口口口口 |----|
73
口口口口 |①---|
①③口口 |②---|
②④口口 |③---|
口口口口 |④---|
74
口口①① |①---|
口②③口 |----|
口口口口 |②---|
口口口口 |③---|
75
口口口口 |①---|
①口口④ |②---|
口②口口 |③---|
口口③口 |④---|
76
口口口口 |①---|
口③②口 |----|
口口口① |②---|
口口口口 |③---|
77
口口口口 |①---|
④口口① |②---|
口口②口 |③---|
口③口口 |④---|
78
口口口口 |①---|
口口口口 |----|
①口口口 |②---|
口②②口 |----|
79
口口口口 |①---|
口口口口 |----|
口①①口 |----|
口口口口 |----|
80
口口口口 |----|
①口口① |----|
口口口口 |①---|
口口口口 |----|
81
口口口口 |①---|
口②②口 |----|
①口口① |----|
口口口口 |②---|
82
口口口口 |----|
口口口口 |----|
口口口口 |----|
口口口口 |----|
83
口口口口 |①---|
口口口口 |----|
口口②口 |②---|
口口①口 |----|
84
口口口口 |①---|
口②口口 |----|
口①口口 |②---|
口口口口 |----|
85
口口②口 |①---|
口口①口 |----|
口口口口 |②---|
口口口口 |----|
86
口口口口 |①---|
①口口① |----|
②口口② |②---|
口口口口 |----|
87
口口口口 |①---|
口口口口 |----|
口②口口 |②---|
口①口口 |----|
88
口口口口 |①---|
口口②口 |----|
口口①口 |②---|
口口口口 |----|
89
口②口口 |①---|
口①口口 |----|
口口口口 |②---|
口口口口 |----|
90
口口①口 |①---|
口口②口 |----|
口口口口 |②---|
口口口口 |----|
91
口口口口 |①---|
口口口口 |----|
口①①口 |----|
口口口口 |----|
92
口口口口 |----|
口①①口 |----|
口口口口 |----|
口口口口 |--①-|

不確定度: 0

最終更新:2014年08月01日 23:45