天ノ弱
164 feat. GUMI

ADVANCED

Level: 6
BPM: 200-205
Notes: 398

全程BPM在200-205間飄忽不定
1
口口口口 |----|
口口口口 |----|
口口口口 |----|
口口口口 |----|
2
口口口口 |----|
口口口口 |----|
口口口口 |----|
口口口口 |----|
3
口口口口 |①---|
口口①② |②---|
口口①② |----|
口口口口 |----|
4
口口口口 |①---|
②②口口 |②---|
①①口口 |----|
口口口口 |----|
5
口①①口 |①---|
口口口口 |----|
口口口口 |----|
口口口口 |----|
6
①口①口 |①---|
②口②口 |②---|
口口口口 |③---|
口③口③ |----|
7
口口口口 |①---|
②①口口 |②---|
②①口口 |----|
口口口口 |----|
8
口口口口 |①---|
口口②② |②---|
口口①① |----|
口口口口 |----|
9
口①①口 |①---|
口口口口 |----|
口口口口 |----|
口口口口 |----|
10
口①口① |①---|
口②口② |②---|
口口口口 |③---|
③口③口 |----|
11
口口口口 |①---|
口口①② |②---|
口口①② |----|
口口口口 |----|
12
口口口口 |①---|
②②口口 |②---|
①①口口 |----|
口口口口 |----|
13
口①①口 |①---|
口口口口 |----|
口口口口 |----|
口口口口 |----|
14
①口①口 |①---|
②口②口 |②---|
口口口口 |③---|
口③口③ |----|
15
口口口口 |①---|
②①口口 |②---|
②①口口 |----|
口口口口 |----|
16
口口口口 |①---|
口口②② |②---|
口口①① |----|
口口口口 |----|
17
口①①口 |①---|
口口口口 |----|
口口口口 |----|
口口口口 |----|
18
③口③口 |①---|
口②口② |②---|
口④口④ |③---|
①口①口 |④---|
19
口①口① |①---|
口口口口 |----|
口口口口 |----|
口口口口 |----|
20
①①①① |----|
口口口口 |----|
口口口口 |----|
口口口口 |①---|
21
口口口口 |①---|
口口口口 |----|
口口口口 |----|
①①①① |----|
22
口口口口 |①---|
口①①口 |----|
口①①口 |----|
口口口口 |----|
23
口口口口 |①---|
①口口① |----|
①口口① |----|
口口口口 |----|
24
口口口口 |----|
口口口口 |----|
口口口口 |----|
口口口口 |----|
25
口口口口 |①---|
口口口口 |----|
口①①口 |----|
口口口口 |----|
26
口口②口 |①---|
口①①口 |----|
口口口口 |----|
口口口口 |②---|
27
口①口口 |①---|
口②口口 |--②-|
口③口口 |----|
口口口口 |③---|
28
②口口口 |①---|
②口口口 |②---|
口口口① |----|
③口口① |③---|
29
口口口口 |①---|
口③③口 |②---|
口口④口 |--③-|
口①②口 |--④-|
30
口口④口 |①---|
②口口② |②---|
③①口③ |③---|
口口口口 |④---|
31
口①口口 |①---|
口②口口 |--②-|
口③口口 |----|
口口口口 |③---|
32
②②口口 |①---|
口口①① |②---|
口口口口 |----|
口口③口 |③---|
33
口口口口 |①---|
口③口口 |--②-|
口②口口 |----|
口①口口 |③---|
34
口口④口 |①---|
口口①① |②---|
②②口口 |③---|
口口③③ |④---|
35
口①口口 |①---|
口②口口 |--②-|
口③口口 |----|
口口口口 |③---|
36
②口口口 |①---|
②口口口 |②---|
口口口① |----|
③口口① |③---|
37
口口口口 |①---|
口③③口 |②---|
口口口口 |--③-|
口①②口 |----|
38
口口④口 |①---|
②口口② |②---|
③口口③ |③---|
①口口① |④---|
39
口①口口 |①---|
口②口口 |--②-|
口③口口 |----|
口口口口 |③---|
40
②②口口 |①---|
口口①① |②---|
口口口口 |----|
口③口口 |③---|
41
口口口口 |①---|
口口③口 |--②-|
口口②口 |----|
口口①口 |③---|
42
①口②口 |①---②-|
口③口④ |--③---|
⑤口⑥口 |④---⑤-|
口口口口 |--⑥---|
43
口口口口 |①---|
口口口口 |----|
口口口口 |②---|
①②②①
44
口口口口 |----|
口口口口 |①---|
口口口口 |----|
①口口①
45
口口口口 |①---|
②口口② |----|
①口口① |②---|
口口口口
46
①口口① |----|
口口口口 |①---|
口口口口 |----|
口口口口
47
口①①口 |①---|
口②②口 |----|
口口口口 |②---|
口口口口
48
①口口① |①---|
②口口② |----|
口口口口 |②---|
口口口口
49
口口口口 |----|
口口口口 |①---|
①口口① |----|
②口口② |②---|
50
①口口① |①---|
口②口口 |----|
口口②口 |②---|
口口口口 |----|
51
口③口③ |①---|
口口口口 |--②-|
②②口口 |----|
①①口口 |③---|
52
口口口口 |①---|
口①②① |----|
口②口口 |②---|
口口口口 |----|
53
③口③口 |①---|
口口口口 |--②-|
口口②② |----|
口口①① |③---|
54
口口口口 |①---|
①口①口 |----|
口②③口 |②---|
口口口口 |③---|
55
①口口① |①---|
②口口② |②---|
口口口口 |----|
③③口口 |③---|
56
②②口口 |①---|
口口口口 |②---|
口口①① |----|
③口③口 |③---|
57
③口③口 |①---|
口①口① |②---|
④②④② |③---|
口口口口 |④---|
58
口①口① |①---|
口口②口 |----|
口②口口 |②---|
口口口口 |----|
59
③口③口 |①---|
口口口口 |--②-|
口口②② |----|
口口①① |③---|
60
口口口口 |①---|
①②①口 |----|
口口②口 |②---|
口口口口 |----|
61
口③口③ |①---|
口口口口 |--②-|
②②口口 |----|
①①口口 |③---|
62
口口口口 |①---|
口①口① |----|
口②②口 |②---|
口口口口 |----|
63
口口口口 |①---|
口口口口 |----|
口口口口 |----|
口①①口 |----|
64
口口口口 |----|
口口口口 |----|
口口口口 |①---|
①①①口 |----|
65
口③③③ |①---|
②②②口 |--②-|
口①①① |----|
口口口口 |③---|
66
口口口口 |①---|
口③②口 |----|
口②③口 |②---|
①①①① |③---|
67
口③①① |①---|
口③口口 |--②-|
口口口口 |----|
口口②② |③---|
68
口口口口 |①---|
①③②口 |----|
①②③口 |②---|
口口口口 |③---|
69
①①④口 |①---|
口口④口 |--②-|
口③口口 |--③-|
②②口口 |④---|
70
口口口口 |①---|
口⑤④① |----|
口③②① |②-③-|
口口口口 |④-⑤-|
71
①口口① |①---|
口口口口 |②---|
②③口② |----|
口③口口 |③---|
72
口口口② |①---|
口口①② |②---|
口口①口 |----|
口③口③ |③---|
73
口③口③ |①---|
①口①口 |②---|
②④②④ |③---|
口口口口 |④---|
74
①口①口 |①---|
口②③口 |----|
口③②口 |②---|
口口口口 |③---|
75
①①③口 |①---|
口口③口 |--②-|
口口口口 |----|
②②口口 |③---|
76
口口口口 |①---|
口②③① |----|
口③②① |②---|
口口口口 |③---|
77
口④①① |①---|
口④口口 |--②-|
口口③口 |--③-|
口口②② |④---|
78
口口口口 |①---|
①口口② |----|
①口口② |②---|
口口口口 |----|
79
口口口口 |①---|
口口口口 |----|
口口口口 |----|
①①①① |----|
80
①①①① |----|
口口口口 |----|
口口口口 |①---|
口口口口 |----|
81
②②②② |①---|
口口口口 |----|
口口口口 |----|
①①①① |②---|
82
口口口口 |----|
口口口口 |----|
①①①① |①---|
口口口口 |----|
83
口口口口 |①---|
①①①① |----|
口口②口 |②---|
口口口口 |----|
84
口口口口 |①---|
口口口口 |----|
②①口口 |②---|
口口口口 |----|
85
口口口口 |①---|
口口口口 |----|
口口口口 |②---|
①②口口 |----|
86
口②口② |①---|
口口口口 |----|
①口①口 |②---|
口口口口 |----|
87
口口口口 |①---|
口口②口 |----|
口口口口 |②---|
口①口① |----|
88
口口口口 |①---|
②①口口 |----|
口口口口 |②---|
口口口口 |----|
89
口口口口 |①---|
口口口口 |----|
①②口口 |②---|
口口口口 |----|
90
口口口口 |①---|
口口口口 |----|
口口①② |②---|
口口口口 |----|
91
口口口口 |①---|
口②①口 |----|
口口口口 |②---|
口口口口 |----|
92
口④口口 |①---|
口口③口 |----|
口②①口 |②---|
口口口口 |③-④-|

不確定度: 0

最終更新:2014年08月01日 23:45