V.I.P


BASIC

Level: 1
BPM: 185
Notes: 122

1
口口口口 |----|
口口口口 |----|
口口口口 |----|
口口口口 |----|
2
口口口口 |①---|
口口口口 |----|
①②口口 |②---|
口口口口 |----|
3
口口口口 |①---|
口①①口 |----|
口口口口 |----|
口口口口 |----|
4
口口口口 |①---|
口口口口 |----|
口①①口 |----|
口口口口 |----|
5
口口口口 |①---|
口口口口 |----|
口口②① |②---|
口口口口 |----|
6
口口口口 |①---|
口①①口 |----|
口口口口 |----|
口口口口 |----|
7
口口口口 |①---|
口口口口 |----|
①②口口 |②---|
口口口口 |----|
8
口口口口 |①---|
口口①② |----|
口口口口 |②---|
口口口口 |----|
9
口口口口 |①---|
口口口口 |----|
口②①口 |②---|
口口口口 |----|
10
口口口口 |①---|
①②口口 |----|
口口口口 |②---|
口口口口 |----|
11
口口口口 |①---|
口口口口 |----|
口②①口 |②---|
口口口口 |----|
12
口口口口 |①---|
口口口口 |----|
①口口口 |----|
口口口口 |----|
13
口口口口 |①---|
①口口① |----|
口口口口 |----|
口口口口 |----|
14
口口口口 |①---|
口口口口 |----|
①口口① |----|
口口口口 |----|
15
口口口口 |----|
口口口口 |----|
口口口口 |----|
口口口口 |----|
16
口口口口 |----|
口口口口 |----|
口口口口 |----|
口口口口 |----|
17
口口口口 |①---|
口口口口 |----|
口口口口 |②---|
口①②口 |----|
18
口口口口 |①---|
口口口口 |----|
口口口② |②---|
口口口① |----|
19
口口口口 |①---|
口口口口 |----|
②①口口 |②---|
口口口口 |----|
20
口口口口 |①---|
①口②口 |----|
口口口口 |②---|
口口口口 |----|
21
口口口口 |①---|
口口口口 |----|
口①②口 |②---|
口口口口 |----|
22
口口口口 |①---|
口②①口 |----|
口口口口 |②---|
口口口口 |----|
23
口口口口 |①---|
口口口口 |----|
口口①口 |②---|
口口②口 |----|
24
口口口口 |①---|
口口口口 |----|
口①①口 |----|
口口口口 |----|
25
口口口口 |①---|
口口口口 |----|
口口口口 |②---|
口①②口 |----|
26
口口口口 |①---|
口口口口 |----|
口口口② |②---|
口口口① |----|
27
口口口口 |①---|
口口口口 |----|
②①口口 |②---|
口口口口 |----|
28
口口口口 |①---|
①口②口 |----|
口口口口 |②---|
口口口口 |----|
29
口口口口 |①---|
口口口口 |----|
口①②口 |②---|
口口口口 |----|
30
口口口口 |①---|
口②①口 |----|
口口口口 |②---|
口口口口 |----|
31
口口口口 |①---|
口口口口 |----|
口口①口 |②---|
口口②口 |----|
32
口口口口 |①---|
口口口口 |----|
口①①口 |----|
口口口口 |----|
33
口口口口 |①---|
口口口口 |----|
①②口口 |②---|
口口口口 |----|
34
口口口口 |①---|
②①口口 |----|
口口口口 |②---|
口口口口 |----|
35
口口口口 |①---|
口口②口 |----|
口口①口 |②---|
口口口口 |----|
36
口口口口 |①---|
口口口① |----|
口口口口 |----|
口口口口 |----|
37
口口②口 |①---|
口口①口 |----|
口口口口 |②---|
口口口口 |----|
38
口口口口 |①---|
口①口口 |----|
口②口口 |②---|
口口口口 |----|
39
口口口口 |①---|
口口口口 |----|
口口①口 |②---|
口口②口 |----|
40
口口口口 |①---|
①口口① |----|
②口口② |②---|
口口口口 |----|
41
口口口口 |①---|
口口口口 |----|
口口口口 |②---|
口①②口 |----|
42
口口口口 |①---|
口口口口 |----|
口②①口 |②---|
口口口口 |----|
43
口口口口 |①---|
口口①① |----|
口口口口 |----|
口口口口 |----|
44
口口口口 |①---|
①①口口 |----|
口口口口 |----|
口口口口 |----|
45
口口口口 |①---|
口口口口 |----|
①②口口 |②---|
口口口口 |----|
46
口口口口 |①---|
口①①口 |----|
口口口口 |----|
口口口口 |----|
47
口口口口 |①---|
口口口口 |----|
口①①口 |----|
口口口口 |----|
48
口口口口 |①---|
口口口口 |----|
口口②① |②---|
口口口口 |----|
49
口口口口 |①---|
口①①口 |----|
口口口口 |----|
口口口口 |----|
50
口口口口 |①---|
口口口口 |----|
口①②口 |②---|
口口口口 |----|
51
口口口口 |①---|
口口①口 |----|
口口口口 |----|
口口口口 |----|
52
口口口口 |①---|
口①口口 |----|
口②口口 |②---|
口口口口 |----|
53
口口口口 |①---|
口口口口 |----|
口②①口 |②---|
口口口口 |----|
54
口口口口 |①---|
口①①口 |----|
口口口口 |----|
口口口口 |----|
55
口口口口 |①---|
口口口口 |----|
口①①口 |----|
口口口口 |----|
56
口口口口 |①---|
口口口口 |----|
口口②① |②---|
口口口口 |----|
57
口口口口 |①---|
口①①口 |----|
口口口口 |----|
口口口口 |----|
58
口口口口 |①---|
口口口口 |----|
①②口口 |②---|
口口口口 |----|
59
口口口口 |①---|
口口①② |----|
口口口口 |②---|
口口口口 |----|
60
口口口口 |①---|
口口口口 |----|
口②①口 |②---|
口口口口 |----|
61
口口口口 |①---|
①②口口 |----|
口口口口 |②---|
口口口口 |----|
62
口口口口 |①---|
口口口口 |----|
口②①口 |②---|
口口口口 |----|
63
口口口口 |①---|
口口口口 |----|
①口口口 |----|
口口口口 |----|
64
口口口口 |①---|
①口口① |----|
口口口口 |----|
口口口口 |----|
65
口口口口 |①---|
口口口口 |----|
①口口① |----|
口口口口 |----|

不確定度: 0

最終更新:2014年08月01日 23:13