polygon
Sota Fujimori

ADVANCED

Level: 6
BPM: 174
Notes: 411

1
口口口口|①---|
口①①口|----|
口①①口|----|
口口口口|----|
2
口口口口|----|
口口口口|----|
口口口口|----|
口口口口|----|
3
口口④口|①--②|
⑤②⑥口|--③-|
①口③口|-④--|
口口口口|⑤-⑥-|
4
③口③口|①--②|
口口口口|--③-|
口口口口|----|
口②①口|----|
5
口④口口|①--②|
口⑥②⑤|--③-|
口③口①|-④--|
口口口口|⑤-⑥-|
6
口③口③|①--②|
口口⑥口|--③-|
口④口⑤|--④-|
口①②口|⑤-⑥-|
7
口口④口|①--②|
⑤②⑥口|--③-|
①口③口|-④--|
口口口口|⑤-⑥-|
8
口口③口|①--②|
口口口口|--③-|
口口③口|----|
口②①口|----|
9
口④口口|①--②|
口⑥②⑤|--③-|
口③口①|-④--|
口口口口|⑤-⑥-|
10
③口口③|①--②|
口口口口|--③-|
②口口②|----|
①口口①|----|
11
②口②口|①---|
口③口④|②---|
①口①口|③-④-|
口⑤口⑥|⑤-⑥-|
12
口口口口|①-②-|
③口④口|③-④-|
口口口口|----|
①口②口|----|
13
口②口②|①---|
③口④口|②---|
口①口①|③-④-|
⑤口⑥口|⑤-⑥-|
14
口口口口|①-②-|
口③口④|③-④-|
口口口口|----|
口①口②|----|
15
②口②口|①---|
口③口④|②---|
①口①口|③-④-|
口⑤口⑥|⑤-⑥-|
16
口口口口|①-②-|
③口④口|③-④-|
口①口②|----|
口口口口|----|
17
口②口②|①---|
③口④口|②---|
口①口①|③-④-|
⑤口⑥口|⑤-⑥-|
18
③口④口|①-②-|
口口口口|③-④-|
口①口②|----|
口口口口|----|
19
口口口口|①---|
口口口口|②---|
口口口口|③---|
①②③④|④---|
20
口口口口|①---|
口口口口|②---|
口口口口|③---|
①②③④|④---|
21
口口口口|①---|
口口口口|②---|
①口口口|③---|
①②③④|④---|
22
口口口口|①---|
口口口口|②---|
①口口口|③---|
①②③④|④---|
23
④③②①|①---|
口口口口|②---|
口口口口|③---|
口口口口|④---|
24
④③②①|①---|
口口口口|②---|
口口口口|③---|
口口口口|④---|
25
④③②①|①---|
口口口①|②---|
口口口口|③---|
口口口口|④---|
26
口④④口|①--②|
口口口口|--③-|
①③③②|----|
口口口口|④---|
27
①口口口|①---|
口②口③|②-③-|
⑤⑥④口|④--⑤|
口口口口|--⑥-|
28
口口口口|-①--|
口①口③|②--③|
口口口②|----|
口口口口|----|
29
①口口口|①---|
口②口③|②-③-|
⑤⑥④口|④-⑤-|
口口口口|--⑥-|
30
口口口口|-①--|
口①口②|②-③-|
口口口③|----|
口口口口|----|
31
①口口口|①---|
口②口③|②-③-|
⑤口④口|④-⑤-|
口⑥口口|--⑥-|
32
口口口口|-①--|
口①口③|②--③|
口口口口|----|
口口口②|----|
33
①口口口|①---|
口②口③|②-③-|
⑤口④口|④-⑤-|
口⑥口口|--⑥-|
34
口口口口|-①--|
口①口②|②-③-|
口口口口|----|
口口口③|----|
35
口口口口|①---|
口口口口|----|
口②②口|②---|
口①①口|----|
36
②口口③|①---|
④①①⑤|----|
口口口口|②-③-|
口口口口|④-⑤-|
37
口口口口|①---|
口口口口|----|
口②②口|②---|
口①①口|----|
38
②口口③|①---|
④①①⑤|----|
口口口口|②-③-|
口口口口|④-⑤-|
39
口口口口|①---|
口②口口|----|
口①②口|②---|
口口①口|----|
40
②①口③|①---|
④口①⑤|----|
口口口口|②-③-|
口口口口|④-⑤-|
41
口口口口|①---|
口②口口|----|
口①②口|②---|
口口①口|----|
42
③口口④|①--②|
②口口②|----|
①口口①|--③-|
口口口口|④---|
43
口②④口|①---|
口口口口|②---|
①口口③|③---|
口口口口|④---|
44
口②④口|①---|
口口口口|②---|
①口口③|③---|
口口口口|④---|
45
口②④口|①---|
口口口口|②---|
①①③③|③---|
口口口口|④---|
46
口②④口|①---|
口口口口|②---|
①①③③|③---|
口口口口|④---|
47
口②④口|①---|
口口口口|②---|
①口口③|③---|
口①③口|④---|
48
口②④口|①---|
口口口口|②---|
①口口③|③---|
口①③口|④---|
49
口口口口|①--②|
②②④④|----|
①①③③|③--④|
口口口口|----|
50
口口口口|①---|
③口口③|②---|
④①②④|③-④-|
⑤②①⑤|⑤---|
51
①②③④|①---|
口口口口|②---|
口口口口|③---|
口口口口|④---|
52
口口口口|①---|
口口口①|②---|
口口口②|③---|
口口④③|④---|
53
口口口口|①---|
④口口口|②---|
③口口口|③---|
②①口口|④---|
54
①②③④|①---|
口口口口|②---|
口口口口|③---|
口口口口|④---|
55
口口口口|①---|
口口口①|②---|
口③口②|③---|
口口④③|④---|
56
口口口口|①---|
④口口口|②---|
③口③口|③---|
②①口口|④---|
57
①②③④|①---|
口③口口|②---|
口口口口|③---|
口口口口|④---|
58
口口口口|①---|
口口口①|②---|
口口口②|③---|
口③口③|----|
59
口口口①|①---|
口口②①|②---|
口③②口|③---|
口③口口|----|
60
口口口口|---①|
①口②口|--②-|
口口③口|③---|
口口口口|----|
61
①口口口|①---|
①②口口|②---|
口②③口|③---|
口口③口|----|
62
口③口口|---①|
口②口口|--②-|
口口口①|③---|
口口口口|----|
63
口口口①|①---|
口口②①|②---|
口③②口|③---|
口③口口|----|
64
口口口口|---①|
①口②口|--②-|
口口③口|③---|
口口口口|----|
65
①口口口|①---|
①②口口|②---|
口②③口|③---|
口口③口|----|
66
口③口口|---①|
口②口口|--②-|
口口口①|③---|
口口口口|----|
67
①口口①|①---|
口口②①|②---|
口③②口|③---|
口③口口|----|
68
口口口口|---①|
①口②口|--②-|
口口③口|③---|
口口口口|----|
69
①口口①|①---|
①②口口|②---|
口②③口|③---|
口口③口|----|
70
口③口口|---①|
口②口口|--②-|
口口口①|③---|
口口口口|----|
71
①口口①|①---|
口口②①|②---|
③③②口|③---|
口③口口|----|
72
口口口口|---①|
①口②口|--②-|
口口③口|③---|
口口口口|----|
73
①口口①|①---|
①②口口|②---|
口②③③|③---|
口口③口|----|
74
口③口口|---①|
口②口口|--②-|
口口口口|③---|
口口口①|----|
75
口口口口|①---|
口口口口|----|
口②②口|②---|
口①①口|----|
76
口②②口|①---|
口①①口|----|
口口口口|②---|
口口口口|----|
77
口口口口|①---|
口口口口|----|
②口口②|②---|
①口口①|----|
78
②口口②|①---|
①口口①|----|
口口口口|②---|
口口口口|----|
79
口①口口|①---|
口②①口|----|
口口②口|②---|
口口口口|----|
80
口口口口|①---|
口口口口|----|
口①②口|②---|
口②①口|----|
81
口口口口|①---|
②口口②|----|
①口口①|②---|
口口口口|----|
82
口口口口|①--②|
④⑤⑤④|--③-|
①⑤⑤②|④---|
口③③口|⑤---|

不确定度: 0

最終更新:2012年11月08日 18:29