TYCOON
SOUND HOLIC feat. Nana Takahashi

BASIC

Level: 4
BPM: 170
Notes: 291

1
口口口口 |----|
口口口口 |----|
口口口口 |----|
口口口口 |----|
2
口口口口 |①---|
口口口口 |----|
口口口口 |----|
口①①口 |----|
3
口口口口 |①---|
口口口口 |----|
口口口口 |----|
①口口① |----|
4
口口口口 |①---|
口口口口 |----|
口口口口 |----|
口①①口 |----|
5
口口口口 |①---|
口口口口 |----|
口口口口 |----|
①口口① |----|
6
口口口口 |①---|
口口口口 |----|
①①①① |----|
口口口口 |----|
7
口口口口 |①---|
口①①口 |----|
口口口口 |----|
口口口口 |----|
8
口口口口 |①---|
口②②口 |----|
口①①口 |②---|
口口口口 |----|
9
②口口② |①---|
①口口① |----|
口口口口 |②---|
口口口口 |----|
10
口口口口 |①---|
口②④口 |②---|
口①③口 |③---|
口口口口 |④---|
11
口口口口 |①---|
②口口④ |②---|
①口口③ |③---|
口口口口 |④---|
12
口口口口 |①---|
口①②口 |②---|
口③④口 |③---|
口口口口 |④---|
13
口口口口 |①---|
③口口④ |②---|
①口口② |③---|
口口口口 |④---|
14
口②④口 |①---|
口①③口 |②---|
口口口口 |③---|
口口口口 |④---|
15
②口口④ |①---|
①口口③ |②---|
口口口口 |③---|
口口口口 |④---|
16
口口口口 |①---|
口①①口 |----|
口口口口 |②---|
口②②口 |----|
17
口口口口 |--①-|
③①口③ |----|
②口①② |--②-|
口口口口 |--③-|
18
口口口口 |①---|
口口①口 |----|
口②口口 |②---|
口口口口 |----|
19
口口口口 |①---|
口①口口 |----|
口口②口 |②---|
口口口口 |----|
20
口①口口 |①---|
口口②口 |----|
口口口口 |②---|
口口口口 |----|
21
口口口口 |①---|
口口口口 |----|
口①口口 |②---|
口口②口 |----|
22
口口口口 |①---|
②②口口 |----|
口①口口 |②---|
口口口口 |----|
23
口口口口 |①---|
口口②② |----|
口口①口 |②---|
口口口口 |----|
24
口口口口 |①---|
口①②口 |----|
口口口口 |②---|
口口口口 |----|
25
口口口口 |①---|
口口口口 |----|
口①②口 |②---|
口口口口 |----|
26
口口口口 |①---|
口口口口 |②---|
口口口口 |③---|
①②③④ |④---|
27
口口口口 |①---|
口口口口 |②---|
口口口口 |③---|
①②③④ |④---|
28
口口口口 |①---|
口口口口 |②---|
口口口口 |③---|
①②③④ |④---|
29
口口口口 |①---|
口口口口 |②---|
口口③④ |③---|
①②口口 |④---|
30
口口口口 |①---|
口口口口 |----|
口①口口 |----|
口口口口 |----|
31
口口口口 |①---|
口①①口 |----|
口口口口 |----|
口口口口 |----|
32
口口口口 |①---|
口①②口 |----|
口口口口 |②---|
口口口口 |----|
33
口口口口 |①---|
口口口口 |----|
①口口② |②---|
口口口口 |----|
34
口口口口 |①---|
口口口口 |----|
口口②口 |②---|
口①口口 |----|
35
口口口口 |①---|
口口②口 |----|
口①口口 |②---|
口口口口 |----|
36
口①①口 |①---|
口口口口 |----|
口口口口 |----|
口口口口 |----|
37
口口口口 |①---|
口①①口 |----|
口①①口 |----|
口口口口 |----|
38
口口口口 |①---|
②④口口 |②---|
①③口口 |③---|
口口口口 |④---|
39
口口口口 |①---|
口口④② |②---|
口口③① |③---|
口口口口 |④---|
40
口口口口 |①---|
①②③④ |②---|
口口口口 |③---|
口口口口 |④---|
41
口口口口 |①---|
口口口口 |②---|
④③②① |③---|
口口口口 |④---|
42
口口口口 |①---|
口①②口 |②---|
口③④口 |③---|
口口口口 |④---|
43
口口口口 |①---|
①口口② |②---|
③口口④ |③---|
口口口口 |④---|
44
口④口口 |①---|
口③口口 |②---|
口②口口 |③---|
口①口口 |④---|
45
口口①口 |①---|
口口②口 |②---|
口口③口 |③---|
口口④口 |④---|
46
口口口口 |①---|
②④口口 |②---|
①③口口 |③---|
口口口口 |④---|
47
口口口口 |①---|
口口④② |②---|
口口③① |③---|
口口口口 |④---|
48
口口口口 |①---|
①②③④ |②---|
口口口口 |③---|
口口口口 |④---|
49
口口口口 |①---|
口口口口 |②---|
④③②① |③---|
口口口口 |④---|
50
口口口口 |①---|
口①②口 |②---|
口③④口 |③---|
口口口口 |④---|
51
口口口口 |①---|
①口口② |②---|
③口口④ |③---|
口口口口 |④---|
52
口④口口 |①---|
口③口口 |②---|
口②口口 |③---|
口①口口 |④---|
53
口口①口 |①---|
口口②口 |②---|
口口③口 |③---|
口口④口 |④---|
54
口口口口 |①---|
口口口口 |②---|
①口口② |③---|
③口口④ |④---|
55
口口口口 |①---|
口口口口 |②---|
①口口② |③---|
③口口④ |④---|
56
口口口口 |①---|
口口口口 |----|
口①①口 |----|
口口口口 |----|
57
口口口口 |①---|
口①①口 |----|
口口口口 |----|
口口口口 |----|
58
①口口① |①---|
口口口口 |----|
口口口口 |----|
口口口口 |----|
59
口口口口 |①---|
①口口① |----|
口口口口 |----|
口口口口 |----|
60
口口口口 |①---|
口①①口 |----|
口①①口 |----|
口口口口 |----|
61
口口口口 |①---|
口口口口 |----|
口口口口 |----|
口①①口 |----|
62
口口口口 |①---|
①①①① |----|
口口口口 |----|
口口口口 |----|
63
口口口口 |①---|
口口口口 |----|
口口口口 |----|
①口口① |----|
64
口口口口 |①---|
口口口口 |----|
②①①② |②---|
口口口口 |----|
65
②口口② |①---|
口①①口 |----|
口口口口 |②---|
口口口口 |----|
66
口口口口 |①---|
①②③④ |②---|
口口口口 |③---|
口口口口 |④---|
67
口口口口 |①---|
口口口口 |②---|
④③②① |③---|
口口口口 |④---|
68
口口口口 |①---|
口①②口 |②---|
口③④口 |③---|
口口口口 |④---|
69
口口口口 |①---|
①口口② |②---|
③口口④ |③---|
口口口口 |④---|
70
口口口口 |①---|
口口④口 |②---|
口③②口 |③---|
口①口口 |④---|
71
④①②④ |①---|
③口口③ |②---|
口口口口 |③---|
口口口口 |④---|
72
口①口口 |①---|
④口②④ |②---|
口③口口 |③---|
口口口口 |④---|
73
口①口口 |①---|
④口②④ |②---|
口③口口 |③---|
口口口口 |④---|
74
口口口口 |①---|
口口口口 |②---|
③口口④ |③---|
口①②口 |④---|
75
口口口口 |①---|
口①②口 |--②-|
口②①口 |----|
口口口口 |----|

不確定度: 0

最終更新:2014年08月01日 23:10