TYCOON
SOUND HOLIC feat. Nana Takahashi

ADVANCED

Level: 6
BPM: 170
Notes: 367

1
口口口口 |----|
口口口口 |----|
口口口口 |----|
口口口口 |----|
2
口口口口 |①---|
口口口口 |----|
口②②口 |②---|
口①①口 |----|
3
口口口口 |①---|
口①①口 |----|
②口口② |②---|
口口口口 |----|
4
口口口口 |①---|
口口口口 |----|
口②②口 |②---|
口①①口 |----|
5
口口口口 |①---|
口①①口 |----|
②口口② |②---|
口口口口 |----|
6
口口口口 |①---|
口口口口 |----|
口②②口 |②---|
①①①① |----|
7
口口口口 |①---|
口①①口 |----|
②口口② |②---|
口口口口 |----|
8
①口口① |①---|
口口口口 |----|
②口口② |②---|
口口口口 |----|
9
口①①口 |①---|
③口口③ |----|
口②②口 |②---|
口口口口 |③---|
10
②④口口 |①---|
口口口口 |②---|
①③口口 |③---|
口口口口 |④---|
11
口口④② |①---|
口口口口 |②---|
口口③① |③---|
口口口口 |④---|
12
口口口口 |①---|
①②③④ |②---|
口口口口 |③---|
口口口口 |④---|
13
口口口口 |①---|
口口口口 |②---|
①②③④ |③---|
口口口口 |④---|
14
②④口口 |①---|
口口口口 |②---|
①③口口 |③---|
口口口口 |④---|
15
口口④② |①---|
口口口口 |②---|
口口③① |③---|
口口口口 |④---|
16
口①口口 |①--②|
口⑤②口 |--③-|
口③⑥口 |-④--|
口口④口 |⑤--⑥|
17
口①①口 |--①-|
③口口③ |----|
口口口口 |--②-|
②口口② |--③-|
18
口②③口 |①---|
口口口口 |②-③-|
口①①口
口口口口

口口口口
口口④口
口口⑤口 |--④-|
口口口口 |--⑤-|
19
口口口口 |--①-|
①②③口 |②-③-|
口口⑤口 |----|
口④口口 |④-⑤-|
20
口口口口 |①---|
③口口口 |②-③-|
口①口口
口口②口

口口口口
口口④口
口⑤口口 |--④-|
口口口口 |--⑤-|
21
口口口口 |----|
口口口口 |----|
①②口口 |----|
口口口口 |①-②-|
22
口口口③ |①---|
口口口口 |②-③-|
口口②④ |----|
口口口① |--④-|
23
③口口口 |①---|
口④⑤口 |②-③-|
②口①口 |----|
口口口口 |④-⑤-|
24
口口口口 |①---|
口口口口 |--②-|
口①口口 |--③-|
③口②④ |--④-|
25
口口口口 |----|
口①②口 |----|
口②①口 |--①-|
口口口口 |--②-|
26
口口口口 |----|
口口口口 |①---|
口口口口 |②---|
口①②③ |③---|
27
口口口口 |①---|
口口口口 |②---|
口口口口 |③---|
①②③④ |④---|
28
口口口口 |①---|
口口口口 |②---|
①②③④ |③---|
口口口口 |④---|
29
口口口口 |①---|
口口⑤口 |②---|
口④口口 |③--④|
①②③口 |--⑤-|
30
①②③④ |①-②-|
口⑤口⑥ |③-④-|
口口口口 |⑤---|
口口⑦口 |⑥-⑦-|
31
口口口口 |--①-|
口④口口 |②---|
③①②口 |----|
口口口口 |③-④-|
32
口①口口 |①---|
口④③② |--②-|
⑤⑥口口 |③-④-|
口口口口 |⑤-⑥-|
33
口口口口 |----|
口口口口 |----|
口②口口 |----|
口口①口 |①-②-|
34
②口口③ |①---|
口口①口 |--②-|
口④口口 |③-④-|
口口⑤口 |--⑤-|
35
口口口口 |①---|
①口口① |--②-|
口②②口
口口口口

③③③③
④④④④
口口口口 |--③-|
口口口口 |--④-|
36
口口口口 |----|
口口口口 |----|
口口口口 |----|
口口口口 |----|
37
⑤⑤⑤⑤ |①---|
④口口④ |②-③-|
③口②③ |--④-|
口①①口 |--⑤-|
38
口口口口 |----|
口②②口 |----|
口①①口 |----|
口口口口 |①-②-|
39
口口口口 |----|
口口口口 |----|
①口口② |----|
口口口口 |①-②-|
40
口口口口 |--①-|
②③④⑤ |②-③-|
⑥口①⑥ |④-⑤-|
口口口口 |--⑥-|
41
口⑥口口 |--①-|
②③④⑤ |②-③-|
口口①口 |④-⑤-|
口口口口 |--⑥-|
42
口口①口 |①---|
口⑤口口 |②-③-|
口④②口 |--④-|
口③口口 |--⑤-|
43
口①口口 |----|
口口口口 |----|
口口口口 |----|
口口口口 |--①-|
44
口口①口 |①---|
口口⑤口 |②-③-|
口②④口 |--④-|
口口③口 |--⑤-|
45
口口口口 |----|
口口口口 |----|
口口口口 |----|
①口口① |--①-|
46
口口口口 |----|
口②②口 |----|
口①①口 |----|
口口口口 |①-②-|
47
口口口口 |----|
口口口口 |----|
①口口② |----|
口口口口 |①-②-|
48
口口口口 |--①-|
②③④⑤ |②-③-|
⑥口①⑥ |④-⑤-|
口口口口 |--⑥-|
49
口⑥口口 |--①-|
②③④⑤ |②-③-|
口口①口 |④-⑤-|
口口口口 |--⑥-|
50
口口①口 |①---|
口⑤口口 |②-③-|
口④②口 |--④-|
口③口口 |--⑤-|
51
口①口口 |----|
口口口口 |----|
口口口口 |----|
口口口口 |--①-|
52
口口①口 |①---|
④口口口 |--②-|
口②③口 |③---|
口口口口 |--④-|
53
口②③口 |①---|
口口口① |②-③-|
口口口口
口口口口

口口口口
⑥口口⑥
口④⑤口 |--④-|
口口口口 |⑤-⑥-|
54
口口口口 |----|
口口口口 |----|
口口口口 |----|
口口口口 |----|
55
口口口口 |①---|
口口④口 |②---|
口②③口 |③---|
口①口口 |④---|
56
①口口② |①-②-|
③口口④ |③-④-|
⑤口口⑥ |⑤-⑥-|
⑦口口⑧ |⑦-⑧-|
57
口⑦⑧口 |①-②-|
口⑤⑥口 |③-④-|
口③④口 |⑤-⑥-|
口①②口 |⑦-⑧-|
58
①口口② |①-②-|
③口口④ |③-④-|
口⑤⑥口 |⑤-⑥-|
口⑦⑧口 |⑦-⑧-|
59
口⑦⑧口 |①-②-|
口⑤⑥口 |③-④-|
③口口④ |⑤-⑥-|
①口口② |⑦-⑧-|
60
口口口口 |①-②-|
①⑦⑧② |③-④-|
口③④口 |⑤-⑥-|
⑤口口⑥ |⑦-⑧-|
61
口⑦⑧口 |①-②-|
⑤口口⑥ |③-④-|
①口口② |⑤-⑥-|
口③④口 |⑦-⑧-|
62
口口口口 |①-②-|
口⑤⑥口 |③-④-|
⑦①②⑧ |⑤-⑥-|
③口口④ |⑦-⑧-|
63
口①①口 |①---|
口口口口 |----|
口口口口 |----|
口口口口 |----|
64
口口口口 |①---|
口口口口 |----|
④③③④ |②--③|
①②②① |--④-|
65
口口口口 |①---|
①口口① |----|
②口口③ |----|
口口口口 |②-③-|
66
口口口口 |--①-|
②③④⑤ |②-③-|
⑥口①⑥ |④-⑤-|
口口口口 |--⑥-|
67
口⑥口口 |--①-|
②③④⑤ |②-③-|
口口①口 |④-⑤-|
口口口口 |--⑥-|
68
口口①口 |①---|
口⑤口口 |②-③-|
口④②口 |--④-|
口③口口 |--⑤-|
69
口口口口 |----|
口口口口 |----|
①②③口 |--①-|
口口口口 |②-③-|
70
④⑤⑥口 |--①-|
口③②① |②-③-|
口口口口 |--④-|
口口口口 |⑤-⑥-|
71
口④④口 |----|
口③③口 |----|
①②②① |①-②-|
口口口口 |③-④-|
72
口口口口 |----|
口①口口 |----|
口口①口 |----|
口口口口 |①---|
73
口口口口 |①---|
口③④口 |②---|
口④③口 |③---|
①口口② |④---|
74
口口口口 |①---|
口②④口 |②---|
③④②③ |③---|
①口口① |④---|
75
口③④口 |①-②-|
①口口② |③-④-|
口口口口 |----|
口口口口 |----|

不確定度: 0

最終更新:2014年08月01日 23:10