Take Your Way
livetune adding Fukase(from SEKAI NO OWARI)

BASIC

Level: 2
BPM: 134
Notes: 164

1
口口口口 |----|
口口口口 |----|
口口口口 |----|
口口口口 |----|
2
口口口③ |①---|
口口口口 |--②-|
口口口② |----|
口口口① |③---|
3
口口①口 |①---|
口口②口 |--②-|
口口口口 |----|
口口③口 |③---|
4
口③口口 |①---|
口口口口 |--②-|
口②口口 |----|
口①口口 |③---|
5
①口口口 |①---|
②口口口 |--②-|
口口口口 |----|
③口口口 |③---|
6
口口口口 |①---|
口③④口 |②---|
口②①口 |③---|
口口口口 |④---|
7
口口口口 |①---|
口口口① |②---|
口口口② |③---|
口口④③ |④---|
8
口口口口 |①---|
④口口口 |②---|
③口口口 |③---|
②①口口 |④---|
9
①②③④ |①---|
口口口口 |②---|
口口口口 |③---|
口口口口 |④---|
10
口口口口 |①---|
口口口① |②---|
口口口② |③---|
口口④③ |④---|
11
口口口口 |①---|
④口口口 |②---|
③口口口 |③---|
②①口口 |④---|
12
①②③口 |①---|
口口④口 |②---|
口口口口 |③---|
口口口口 |④---|
13
口口口口 |①---|
口③口口 |②---|
口②①口 |③---|
口口口口 |----|
14
口口口口 |①---|
口口口口 |----|
口口口口 |----|
口①①口 |----|
15
口口口口 |①---|
口口口口 |----|
口①①口 |----|
口口口口 |----|
16
口口口口 |①---|
口①①口 |----|
口口口口 |----|
口口口口 |----|
17
口①①口 |①---|
口口口口 |----|
口口口口 |----|
口口口口 |----|
18
口口口口 |①---|
口①①口 |----|
口口口口 |----|
口口口口 |----|
19
口口口口 |①---|
口口口口 |----|
口①①口 |----|
口口口口 |----|
20
口口口口 |①---|
口口口口 |----|
口口口口 |----|
口①①口 |----|
21
口口口口 |①---|
口口口口 |----|
口①①口 |----|
口口口口 |----|
22
口口口口 |①---|
口②①口 |②---|
口③④口 |③---|
口口口口 |④---|
23
口口口口 |①---|
口②①口 |②---|
口③④口 |③---|
口口口口 |④---|
24
口口口口 |①---|
口②①口 |②---|
口③④口 |③---|
口口口口 |④---|
25
口口口口 |----|
口口口口 |----|
口口口口 |----|
口口口口 |----|
26
口口口口 |①---|
口①①口 |----|
口口口口 |----|
口口口口 |----|
27
口口口口 |①---|
口口口口 |----|
口①①口 |----|
口口口口 |----|
28
口口口口 |①---|
口口口口 |----|
口口口口 |----|
口①①口 |----|
29
口口口口 |①---|
口①①口 |----|
口口口口 |----|
口口口口 |----|
30
口口口口 |①---|
口口口口 |②---|
口④③口 |③---|
口②①口 |④---|
31
口④③口 |①---|
口②①口 |②---|
口口口口 |③---|
口口口口 |④---|
32
口口口口 |①---|
口②①口 |②---|
口④③口 |③---|
口口口口 |④---|
33
口口口口 |①---|
口口口口 |②---|
口④③口 |③---|
口②①口 |④---|
34
口口口口 |①---|
口①①口 |----|
口口口口 |----|
口口口口 |----|
35
口口口口 |①---|
口口口口 |----|
口①①口 |----|
口口口口 |----|
36
口口口口 |①---|
口口口口 |----|
口口口口 |----|
口①①口 |----|
37
口口口口 |①---|
口①①口 |----|
口口口口 |----|
口口口口 |----|
38
口口口口 |①---|
口口口口 |②---|
口③④口 |③---|
口①②口 |④---|
39
口③④口 |①---|
口①②口 |②---|
口口口口 |③---|
口口口口 |④---|
40
口口口口 |①---|
口①②口 |②---|
口③④口 |③---|
口口口口 |④---|
41
口口口口 |①---|
口口口口 |②---|
口③④口 |③---|
口①②口 |④---|
42
口口口口 |①---|
口①①口 |----|
口口口口 |----|
口口口口 |----|
43
口口口口 |①---|
口口口口 |----|
口①①口 |----|
口口口口 |----|
44
口口口口 |①---|
口口口口 |----|
口口口口 |----|
口①①口 |----|
45
口口口口 |①---|
口口口口 |----|
口①①口 |----|
口口口口 |----|
46
口口口口 |①---|
口①①口 |----|
口口口口 |----|
口口口口 |----|
47
口①①口 |①---|
口口口口 |----|
口口口口 |----|
口口口口 |----|
48
口口口口 |①---|
口③④口 |②---|
口②①口 |③---|
口口口口 |④---|
49
口口口口 |①---|
口口口① |②---|
口口口② |③---|
口口④③ |④---|
50
口口口口 |①---|
④口口口 |②---|
③口口口 |③---|
②①口口 |④---|
51
①②③④ |①---|
口口口口 |②---|
口口口口 |③---|
口口口口 |④---|
52
口口口口 |①---|
口口口① |②---|
口口口② |③---|
口口④③ |④---|
53
口口口口 |①---|
④口口口 |②---|
③口口口 |③---|
②①口口 |④---|
54
①②③口 |①---|
口口④口 |②---|
口口口口 |③---|
口口口口 |④---|
55
口口口口 |①---|
口③口口 |②---|
口②①口 |③---|
口口口口 |----|
56
口①①口 |①---|
口口口口 |----|
口口口口 |----|
口口口口 |----|

不確定度: 0

最終更新:2014年08月01日 23:09