スーパーフレア
The Mirraz

BASIC

Level: 3
BPM: 164
Notes: 176

1
口口口口 |----|
口口口口 |----|
口口口口 |----|
口口口口 |----|
2
口口口口 |①---|
口口③口 |--②-|
口口②口 |----|
口口①口 |③---|
3
口①口口 |①---|
口②口口 |--②-|
口③口口 |----|
口口口口 |③---|
4
口口口口 |①---|
口口③口 |--②-|
口口②口 |----|
口口①口 |③---|
5
口①口口 |①---|
口②口口 |--②-|
口③口口 |----|
口口口口 |③---|
6
口口口口 |①---|
口口③口 |--②-|
口口②口 |----|
口口①口 |③---|
7
口①口口 |①---|
口②口口 |--②-|
口③口口 |----|
口口口口 |③---|
8
口口口口 |①---|
口口③口 |--②-|
口口②口 |----|
口口①口 |③---|
9
口①口口 |①---|
口②口口 |--②-|
口③口口 |----|
口口口口 |③---|
10
口口口口 |①---|
口口口口 |----|
口口口口 |②---|
口②①口 |----|
11
口口口口 |①---|
口②③口 |②---|
口①④口 |③---|
口口口口 |④---|
12
口口口口 |①---|
口口口口 |----|
口口口口 |②---|
口①②口 |----|
13
口口口口 |①---|
口③②口 |②---|
口④①口 |③---|
口口口口 |④---|
14
口口口口 |①---|
口口口口 |----|
口口口口 |②---|
口②①口 |----|
15
口口口口 |①---|
口②③口 |②---|
口①④口 |③---|
口口口口 |④---|
16
口口口口 |①---|
口口口口 |----|
口口口口 |②---|
口①②口 |----|
17
口口口口 |①---|
口③②口 |②---|
口④①口 |③---|
口口口口 |④---|
18
口口口口 |①---|
口口口口 |----|
口②①口 |②---|
口口口口 |----|
19
口口口口 |①---|
口①①口 |----|
口口口口 |----|
口口口口 |----|
20
口口口口 |①---|
口口口口 |----|
口①②口 |②---|
口口口口 |----|
21
口口口口 |①---|
口①①口 |----|
口口口口 |----|
口口口口 |----|
22
口口口口 |①---|
口口口口 |----|
口②①口 |②---|
口口口口 |----|
23
口①①口 |①---|
口口口口 |----|
口口口口 |----|
口口口口 |----|
24
口口口口 |①---|
口口口口 |----|
口①②口 |②---|
口口口口 |----|
25
口①①口 |①---|
口口口口 |----|
口口口口 |----|
口口口口 |----|
26
口口口口 |①---|
口②①口 |----|
口口口口 |②---|
口口口口 |----|
27
①口口① |①---|
口口口口 |----|
口口口口 |----|
口口口口 |----|
28
口口口口 |①---|
口①②口 |----|
口口口口 |②---|
口口口口 |----|
29
①口口① |①---|
口口口口 |----|
口口口口 |----|
口口口口 |----|
30
口口口口 |①---|
口②①口 |----|
口口口口 |②---|
口口口口 |----|
31
口②①口 |①---|
口口口口 |----|
口口口口 |②---|
口口口口 |----|
32
②口口① |①---|
口口口口 |----|
口口口口 |②---|
口口口口 |----|
33
口口口口 |①---|
口①①口 |----|
口口口口 |----|
口口口口 |----|
34
口口②口 |①---|
口口口口 |----|
口口①口 |②---|
口口口口 |----|
35
口②口口 |①---|
口口口口 |----|
口①口口 |②---|
口口口口 |----|
36
口口口口 |①---|
口①①口 |----|
口口口口 |----|
口口口口 |----|
37
口口口口 |----|
口口口口 |----|
口口口口 |----|
口口口口 |----|
38
口②口口 |①---|
口口口口 |----|
口①口口 |②---|
口口口口 |----|
39
口口②口 |①---|
口口口口 |----|
口口①口 |②---|
口口口口 |----|
40
口口口口 |①---|
口①①口 |----|
口口口口 |----|
口口口口 |----|
41
口口口口 |----|
口口口口 |----|
口口口口 |----|
口口口口 |----|
42
口口口口 |①---|
口②①口 |②---|
口③④口 |③---|
口口口口 |④---|
43
口口④③ |①---|
口口口② |②---|
口口口① |③---|
口口口口 |④---|
44
②①口口 |①---|
③口口口 |②---|
④口口口 |③---|
口口口口 |④---|
45
口口口口 |①---|
口口口口 |----|
口②②口 |②---|
口①①口 |----|
46
口口口口 |①---|
口②①口 |②---|
口③④口 |③---|
口口口口 |④---|
47
口口④③ |①---|
口口口② |②---|
口口口① |③---|
口口口口 |④---|
48
②①口口 |①---|
③口口口 |②---|
④口口口 |③---|
口口口口 |④---|
49
口口口口 |①---|
口口口口 |----|
口②②口 |②---|
口①①口 |----|
50
口口口口 |①---|
口①②口 |②---|
口④③口 |③---|
口口口口 |④---|
51
③④口口 |①---|
②口口口 |②---|
①口口口 |③---|
口口口口 |④---|
52
口口①② |①---|
口口口③ |②---|
口口口④ |③---|
口口口口 |④---|
53
口口口口 |①---|
口口口口 |----|
口②②口 |②---|
口①①口 |----|
54
口口口口 |①---|
口②①口 |②---|
口③④口 |③---|
口口口口 |④---|
55
口口④③ |①---|
口口口② |②---|
口口口① |③---|
口口口口 |④---|
56
②①口口 |①---|
③口口口 |②---|
④口口口 |③---|
口口口口 |④---|
57
口口口口 |①---|
口口口口 |----|
口②②口 |②---|
口①①口 |----|
58
口口口口 |①---|
口①①口 |----|
口口口口 |----|
口口口口 |----|
59
口口口口 |①---|
口口口口 |----|
口②①口 |②---|
口口口口 |----|
60
口口口口 |①---|
口口口口 |----|
口②②口 |②---|
口①①口 |----|
61
口②②口 |①---|
口①①口 |----|
口口口口 |②---|
口口口口 |----|
62
口口口口 |①---|
口①①口 |----|
口②②口 |②---|
口口口口 |----|
63
口口口口 |①---|
口口口口 |----|
口②②口 |②---|
口①①口 |----|

不確定度: 0

最終更新:2014年08月01日 23:07