スーパーフレア
The Mirraz

ADVANCED

Level: 5
BPM: 164
Notes: 343

1
口口口口 |----|
口口口口 |----|
口口口口 |----|
口口口口 |----|
2
口口④⑤ |①-②-|
口口⑥③ |③-④-|
口口②⑦ |⑤-⑥-|
口口口① |⑦---|
3
⑤④口口 |①-②-|
③⑥口口 |③-④-|
⑦②口口 |⑤-⑥-|
①口口口 |⑦---|
4
口④⑤口 |①-②-|
口⑥③口 |③-④-|
口②⑦口 |⑤-⑥-|
口口①口 |⑦---|
5
口口口① |①-②-|
口口②⑦ |③-④-|
口口⑥③ |⑤-⑥-|
口口④⑤ |⑦---|
6
①口口口 |①-②-|
⑦②口口 |③-④-|
③⑥口口 |⑤-⑥-|
⑤④口口 |⑦---|
7
口口①口 |①-②-|
口②⑦口 |③-④-|
口⑥③口 |⑤-⑥-|
口④⑤口 |⑦---|
8
①口口口 |①-②-|
⑦②口口 |③-④-|
③⑥口口 |⑤-⑥-|
⑤④口口 |⑦---|
9
口口口① |①-②-|
口口②⑦ |③-④-|
口口⑥③ |⑤-⑥-|
口口④⑤ |⑦---|
10
口③口口 |①---|
口②口口 |--②-|
口口口口 |③---|
口①④口 |--④-|
11
口⑤口③ |①--②|
口④口② |--③-|
口口①口 |④---|
口口口口 |⑤---|
12
口口③口 |①---|
口口②口 |--②-|
口口口口 |③---|
口④①口 |--④-|
13
③口⑤口 |①--②|
②口④口 |--③-|
口①口口 |④---|
口口口口 |⑤---|
14
口③口口 |①---|
口②口口 |--②-|
口口口口 |③---|
口①④口 |--④-|
15
口⑤口③ |①--②|
口④口② |--③-|
口口①口 |④---|
口口口口 |⑤---|
16
口口③口 |①---|
口口②口 |--②-|
口口口口 |③---|
口④①口 |--④-|
17
③口⑤口 |①--②|
②口④口 |--③-|
口①口口 |④---|
口口口口 |⑤---|
18
口④口口 |①---|
口口③口 |②---|
口②口口 |③---|
口口①口 |④---|
19
①口口① |①---|
口口口口 |----|
口口口口 |----|
口口口口 |----|
20
口口④口 |①---|
口③口口 |②---|
口口②口 |③---|
口①口口 |④---|
21
①口口① |①---|
口口口口 |----|
口口口口 |----|
口口口口 |----|
22
口④口口 |①---|
口口③口 |②---|
口②口口 |③---|
口口①口 |④---|
23
①口口① |①---|
口②②口 |--②-|
口口口口 |----|
口口③口 |③---|
24
口③口口 |①---|
④口②④ |②---|
口①口口 |③---|
口口口口 |④---|
25
①口口① |①---|
口口口口 |----|
口口口口 |----|
口口口口 |----|
26
口口④口 |①---|
口③口口 |②---|
口口②口 |③---|
口①口口 |④---|
27
①口口① |①---|
口口口口 |----|
口口口口 |----|
口口口口 |----|
28
口④口口 |①---|
口口③口 |②---|
口②口口 |③---|
口口①口 |④---|
29
①口口① |①---|
口口口口 |----|
口口口口 |----|
口口口口 |----|
30
口口④口 |①---|
口③口口 |②---|
口口②口 |③---|
口①口口 |④---|
31
①口口① |①---|
口②②口 |--②-|
口口口口 |----|
口③口口 |③---|
32
口口③口 |①---|
④②口④ |②---|
口口①口 |③---|
口口口口 |④---|
33
①口口① |①---|
口口口口 |----|
口口口口 |----|
口口口口 |----|
34
口②②口 |①---|
口口口口 |----|
口口口口 |②---|
口①①口 |----|
35
②口口② |①---|
口口口口 |----|
口口口口 |②---|
①口口① |----|
36
口口口口 |①--②|
口⑥③口 |--③-|
口⑤②口 |④--⑤|
口④①口 |--⑥-|
37
口④口④ |①--②|
口口③口 |--③-|
口口②口 |④---|
口口①口 |----|
38
口②②口 |①---|
口口口口 |----|
口口口口 |②---|
口①①口 |----|
39
②口口② |①---|
口口口口 |----|
口口口口 |②---|
①口口① |----|
40
口口口口 |①--②|
口③⑥口 |--③-|
口②⑤口 |④--⑤|
口①④口 |--⑥-|
41
④口④口 |①--②|
口③口口 |--③-|
口②口口 |④---|
口①口口 |----|
42
口⑦口⑦ |①-②-|
⑥口⑤口 |③-④-|
④口③口 |⑤-⑥-|
②口①口 |⑦---|
43
⑦口⑦口 |①-②-|
口⑥口⑤ |③-④-|
口④口③ |⑤-⑥-|
口②口① |⑦---|
44
口⑦⑦口 |①-②-|
⑥口口⑤ |③-④-|
④口口③ |⑤-⑥-|
②口口① |⑦---|
45
④口口④ |①---|
口③③口 |②---|
口②②口 |③---|
口①①口 |④---|
46
⑦口⑦口 |①-②-|
口⑤口⑥ |③-④-|
口③口④ |⑤-⑥-|
口①口② |⑦---|
47
口⑦口⑦ |①-②-|
⑤口⑥口 |③-④-|
③口④口 |⑤-⑥-|
①口②口 |⑦---|
48
口⑦⑦口 |①-②-|
⑤口口⑥ |③-④-|
③口口④ |⑤-⑥-|
①口口② |⑦---|
49
④口口④ |①---|
口③③口 |②---|
口②②口 |③---|
口①①口 |④---|
50
口⑦口⑦ |①-②-|
⑥口⑤口 |③-④-|
④口③口 |⑤-⑥-|
②口①口 |⑦---|
51
⑦口⑦口 |①-②-|
口⑥口⑤ |③-④-|
口④口③ |⑤-⑥-|
口②口① |⑦---|
52
口⑦⑦口 |①-②-|
⑥口口⑤ |③-④-|
④口口③ |⑤-⑥-|
②口口① |⑦---|
53
④口口④ |①---|
口③③口 |②---|
口②②口 |③---|
口①①口 |④---|
54
⑦口⑦口 |①-②-|
口⑤口⑥ |③-④-|
口③口④ |⑤-⑥-|
口①口② |⑦---|
55
口⑦口⑦ |①-②-|
⑤口⑥口 |③-④-|
③口④口 |⑤-⑥-|
①口②口 |⑦---|
56
口⑦⑦口 |①-②-|
⑤口口⑥ |③-④-|
③口口④ |⑤-⑥-|
①口口② |⑦---|
57
④口口④ |①---|
口③③口 |②---|
口②②口 |③---|
口①①口 |④---|
58
口①①口 |①---|
口口口口 |----|
口口口口 |----|
口口口口 |----|
59
口口口口 |①---|
口口口口 |----|
口②②口 |②---|
口①①口 |----|
60
口⑥③口 |①--②|
口⑤②口 |--③-|
口口口口 |④--⑤|
口④①口 |--⑥-|
61
⑥口口③ |①--②|
⑤口口② |--③-|
口口口口 |④--⑤|
④口口① |--⑥-|
62
⑥口口③ |①--②|
⑤口口② |--③-|
口口口口 |④--⑤|
④口口① |--⑥-|
63
口④③④ |①--②|
口口②口 |--③-|
口口口口 |④---|
口口①口 |----|

不確定度: 0

最終更新:2014年08月01日 23:07