RPG
SEKAI NO OWARI

BASIC

Level: 1
BPM: 135
Notes: 107

1
口口口口 |----|
口口口口 |----|
口口口口 |----|
口口口口 |----|
2
口口口口 |①---|
口口口口 |----|
口口口② |②---|
口口口① |----|
3
口口口② |①---|
口口口① |----|
口口口口 |②---|
口口口口 |----|
4
口口①口 |①---|
口口②口 |----|
口口口口 |②---|
口口口口 |----|
5
口口口口 |①---|
口口口口 |----|
口口①口 |②---|
口口②口 |----|
6
口口口口 |①---|
口口口口 |----|
口②口口 |②---|
口①口口 |----|
7
口口口口 |①---|
口①①口 |----|
口口口口 |----|
口口口口 |----|
8
口口口口 |①---|
口口口口 |----|
口口②口 |②---|
口口①口 |----|
9
口口口口 |①---|
口①①口 |----|
口口口口 |----|
口口口口 |----|
10
口口口口 |①---|
口口口口 |----|
②口口口 |②---|
①口口口 |----|
11
口口口口 |①---|
口①①口 |----|
口口口口 |----|
口口口口 |----|
12
口口口口 |①---|
口口口口 |----|
口口口② |②---|
口口口① |----|
13
口口口口 |①---|
口①①口 |----|
口口口口 |----|
口口口口 |----|
14
口口口口 |----|
口口口口 |----|
口口口口 |----|
口口口口 |----|
15
口口②① |①---|
口口口口 |----|
口口口口 |②---|
口口口口 |----|
16
②①口口 |①---|
口口口口 |----|
口口口口 |②---|
口口口口 |----|
17
口口口口 |①---|
①②口口 |----|
口口口口 |②---|
口口口口 |----|
18
口口口口 |①---|
口口①② |----|
口口口口 |②---|
口口口口 |----|
19
口口口口 |①---|
口口口口 |----|
口口②① |②---|
口口口口 |----|
20
口口口口 |①---|
口口口口 |----|
②①口口 |②---|
口口口口 |----|
21
口口口口 |①---|
口口口口 |----|
口口口口 |②---|
①②口口 |----|
22
口口口口 |①---|
口口口口 |----|
口口口口 |②---|
口口①② |----|
23
口口口口 |①---|
口口口② |----|
口口口① |②---|
口口口口 |----|
24
口口②① |①---|
口口口口 |----|
口口口口 |②---|
口口口口 |----|
25
口口口口 |①---|
口口①口 |----|
口口②口 |②---|
口口口口 |----|
26
口口口口 |①---|
口口口口 |----|
口口口口 |②---|
口②①口 |----|
27
口口口口 |①---|
口②口口 |----|
口①口口 |②---|
口口口口 |----|
28
②①口口 |①---|
口口口口 |----|
口口口口 |②---|
口口口口 |----|
29
口口口口 |①---|
①口口口 |----|
②口口口 |②---|
口口口口 |----|
30
口口口口 |①---|
口口口口 |----|
口口口口 |----|
①口口口 |----|
31
口口口口 |①---|
口口口口 |----|
口①①口 |----|
口口口口 |----|
32
口口口口 |①---|
口①①口 |----|
口口口口 |----|
口口口口 |----|
33
口①①口 |①---|
口②②口 |----|
口口口口 |②---|
口口口口 |----|
34
口口口口 |①---|
口口口口 |----|
口①①口 |----|
口口口口 |----|
35
口口口口 |①---|
口口口口 |----|
口口口口 |----|
口①①口 |----|
36
口口口口 |①---|
口口口口 |----|
口①①口 |----|
口口口口 |----|
37
口口口口 |①---|
口①①口 |----|
口口口口 |----|
口口口口 |----|
38
口①①口 |①---|
口口口口 |----|
口口口口 |----|
口口口口 |----|
39
口口口口 |①---|
口①①口 |----|
口口口口 |----|
口口口口 |----|
40
口口口口 |----|
口口口口 |----|
口口口口 |----|
口口口口 |----|
41
口口口口 |①---|
口口口口 |----|
口②口口 |②---|
口①口口 |----|
42
口口口口 |①---|
口①①口 |----|
口口口口 |----|
口口口口 |----|
43
口口口口 |①---|
口口口口 |----|
口口②口 |②---|
口口①口 |----|
44
口口口口 |①---|
口①①口 |----|
口口口口 |----|
口口口口 |----|
45
口口口口 |①---|
口口口口 |----|
②口口口 |②---|
①口口口 |----|
46
口口口口 |①---|
口①①口 |----|
口口口口 |----|
口口口口 |----|
47
口口口口 |①---|
口口口口 |----|
口口口② |②---|
口口口① |----|
48
口口口口 |①---|
口①①口 |----|
口口口口 |----|
口口口口 |----|
49
口口口口 |①---|
口口口口 |----|
口口②口 |②---|
口口①口 |----|
50
口①①口 |①---|
口口口口 |----|
口口口口 |----|
口口口口 |----|
51
口口口口 |①---|
口口口口 |----|
口②口口 |②---|
口①口口 |----|
52
口①①口 |①---|
口口口口 |----|
口口口口 |----|
口口口口 |----|
53
口口口口 |①---|
口口口口 |----|
口口口② |②---|
口口口① |----|
54
口①①口 |①---|
口口口口 |----|
口口口口 |----|
口口口口 |----|
55
口口口口 |①---|
口口口口 |----|
②口口口 |②---|
①口口口 |----|
56
口①①口 |①---|
口口口口 |----|
口口口口 |----|
口口口口 |----|

不確定度: 0

最終更新:2014年08月01日 23:02