RPG
SEKAI NO OWARI

ADVANCED

Level: 5
BPM: 135
Notes: 293

1
口口口口 |----|
口口口口 |----|
口口口口 |----|
口口口口 |----|
2
口口④口 |①---|
口⑤③口 |②-③-|
口②⑥口 |④---|
口口①口 |⑤-⑥-|
3
⑤口③口 |--①-|
④口②口 |--②-|
口口口口 |③-④-|
口口①口 |⑤---|
4
口④口口 |①---|
口③⑤口 |②-③-|
口⑥②口 |④---|
口①口口 |⑤-⑥-|
5
口③口⑤ |--①-|
口②口④ |--②-|
口⑥口口 |③-④-|
口①口口 |⑤-⑥-|
6
③口口口 |①---|
②口①口 |--②-|
口口⑤④ |③---|
口口口口 |④-⑤-|
7
口口口口 |①-②-|
口口⑤口 |----|
②①④口 |--③-|
口口③口 |④-⑤-|
8
口口①口 |①---|
口口口口 |--②-|
口口口口
口②口口

口⑥⑤口
口④口口
口口③口 |③-④-|
口口口口 |⑤-⑥-|
9
①口口① |--①-|
口④③② |----|
口口口口 |--②-|
口口口口 |③-④-|
10
⑥口口⑥ |①---|
①⑤口口 |--②-|
口④③口 |③-④-|
口口②口 |⑤-⑥-|
11
口④口口 |----|
⑤③②⑤ |--①-|
口口①口 |②-③-|
口口口口 |④-⑤-|
12
①口口① |--①-|
口口口口 |--②-|
口口口口
口②口口

⑥口⑤⑥
口口④口
口③口口 |③-④-|
口口口口 |⑤-⑥-|
13
口口口口 |----|
口口口口 |----|
口口口口 |----|
口口口口 |----|
14
口⑥口③ |①---|
口口⑤② |②---|
口④口① |③-④-|
口口口口 |⑤-⑥-|
15
①口①③ |①---|
口口口口 |--②-|
口④口② |③---|
口口口口 |--④-|
16
口①口口 |①---|
口口④口 |----|
口③口口 |--②-|
口口②口 |③-④-|
17
③①②口 |①---|
口⑤④口 |--②-|
口口口口 |③---|
口口口口 |④-⑤-|
18
口口口口 |--①-|
口口口① |----|
口③口口 |②---|
口②口口 |③---|
19
口①③口 |①---|
口口口口 |--②-|
口口②口 |③---|
口④口口 |--④-|
20
口口④口 |①--②|
口③②口 |③-④-|
口①口口
口口口口

口口口口
口口口口
口⑥口口 |----|
口口⑤口 |⑤-⑥-|
21
口④口口 |①-②-|
口②③口 |③-④-|
口口①口
口口口口

⑥口⑤⑦
口⑧⑧口
口口口口 |⑤-⑥-|
口口口口 |⑦-⑧-|
22
口③口口 |----|
口口②口 |----|
口①口口 |--①-|
口口口口 |②-③-|
23
①口①③ |①---|
口口口口 |--②-|
口④口② |③---|
口口口口 |--④-|
24
口口口口 |--①-|
口①①口 |----|
口口口口
口口口口

口口口口
口口④口
口③口口 |--②-|
口口②口 |③-④-|
25
③①②口 |①---|
口⑤④口 |--②-|
口口口口 |③---|
口口口口 |④-⑤-|
26
口口口口 |--①-|
口口口① |----|
口③口口 |②---|
口②口口 |③---|
27
口①口口 |①---|
口口口口 |--②-|
口口口口
口口②口

口⑥口口
口④⑤口
口口③口 |③--④|
口口口口 |⑤-⑥-|
28
口口口① |--①-|
口口口② |②-③-|
口⑤口③ |----|
口口④口 |④-⑤-|
29
口④口口 |①-②-|
口②③口 |③-④-|
口口①口
口口口口

⑥口⑤⑦
口⑧⑧口
口口口口 |⑤-⑥-|
口口口口 |⑦-⑧-|
30
口口口④ |----|
口③口口 |----|
口口口② |①-②-|
口①口口 |③-④-|
31
①口①口 |①---|
口口③口 |②-③-|
口口口口 |----|
口④②口 |--④-|
32
口口③口 |①-②-|
口②⑥口 |③---|
口⑤①口 |--④-|
口口④口 |⑤-⑥-|
33
口①口口 |①---|
口②口② |②-③-|
口③③口
口口口口

口⑤⑤口
口口口口
口口口口 |--④-|
口口④口 |--⑤-|
34
口口口口 |----|
口口③口 |----|
口口②口 |--①-|
口口①口 |②-③-|
35
口③口口 |----|
口②口口 |----|
口口口口 |--①-|
口①口口 |②-③-|
36
口口口口 |----|
口口③口 |----|
口口②口 |--①-|
口口①口 |②-③-|
37
④①①⑦ |①-②-|
③口口⑥ |③-④-|
②口口⑤ |--⑤-|
口口口口 |⑥-⑦-|
38
口③③口 |--①-|
口②②口 |②-③-|
口①①口 |----|
口口口口 |----|
39
口口口口 |----|
口①①口 |①---|
口①①口 |----|
口口口口 |----|
40
口口口② |----|
口口口① |----|
口③口口 |--①-|
口口口口 |②-③-|
41
③口口口 |①---|
②口①口 |--②-|
口口⑤④ |③---|
口口口口 |④-⑤-|
42
口③③口 |①-②-|
口口⑥口 |--③-|
②①⑤口 |--④-|
口口④口 |⑤-⑥-|
43
口口①口 |①---|
口口口口 |--②-|
口口口口
口②口口

口⑥⑤口
口④口口
口口③口 |③-④-|
口口口口 |⑤-⑥-|
44
①口口① |--①-|
口④③② |----|
口口口口 |--②-|
口口口口 |③-④-|
45
⑥口口⑥ |①---|
①⑤口口 |--②-|
口④③口 |③-④-|
口口②口 |⑤-⑥-|
46
口④口口 |----|
⑤③②⑤ |--①-|
口口①口 |②-③-|
口口口口 |④-⑤-|
47
①口口① |--①-|
口口口口 |--②-|
口口口口
口②口口

⑥口⑤⑥
口口④口
口③口口 |③-④-|
口口口口 |⑤-⑥-|
48
②口口口 |----|
①口口口 |----|
口口③口 |--①-|
口口口口 |②-③-|
49
口口口③ |①---|
口①口② |--②-|
④⑤口口 |③---|
口口口口 |④-⑤-|
50
口③③口 |①-②-|
口⑥口口 |--③-|
口⑤①② |--④-|
口④口口 |⑤-⑥-|
51
口①口口 |①---|
口口口口 |--②-|
口口口口
口口②口

口⑤⑥口
口口④口
口③口口 |③-④-|
口口口口 |⑤-⑥-|
52
①口口① |--①-|
②③④口 |----|
口口口口 |--②-|
口口口口 |③-④-|
53
⑦口口⑦ |①---|
口口⑥① |②-③-|
口④⑤口 |④-⑤-|
口③口② |⑥-⑦-|
54
口口④口 |----|
⑤②③⑤ |--①-|
口①口口 |②-③-|
口口口口 |④-⑤-|
55
①口口① |--①-|
口口口口 |--②-|
口口口口
口口②口

⑥⑤口⑥
口④口口
口口③口 |③-④-|
口口口口 |⑤-⑥-|

不確定度: 0

最終更新:2014年08月01日 23:02