PULSE LASER
ヒゲドライバー

BASIC

Level: 4
BPM: 165
Notes: 276

1
口口口口 |----|
口口口口 |----|
口口口口 |----|
口口口口 |----|
2
口口口口 |--①-|
口②①口 |--②-|
口④③口 |--③-|
口口口口 |--④-|
3
口口口口 |--①-|
口口口口 |--②-|
口口口口 |----|
口②①口 |----|
4
口口③口 |①---|
口①①口 |----|
口口②口 |②---|
口口口口 |③---|
5
口③口口 |①---|
口①①口 |----|
口②口口 |②---|
口口口口 |③---|
6
口口③口 |①---|
口①①口 |----|
口口②口 |②---|
口口口口 |③---|
7
口③口口 |①---|
口①①口 |----|
口②口口 |②---|
口口口口 |③---|
8
口口口口 |①---|
口口口③ |----|
①口口① |②---|
口口口② |③---|
9
口口口口 |①---|
③口口口 |----|
①口口① |②---|
②口口口 |③---|
10
口口口口 |①---|
口口口③ |----|
①口口① |②---|
口口口② |③---|
11
口①口口 |①---|
口②口口 |②---|
口③口口 |③---|
口④口口 |④---|
12
口口口口 |①---|
口口口② |----|
①口口① |②---|
口口口口 |----|
13
口口口口 |①---|
口口①口 |----|
口②口口 |②---|
口③口口 |③---|
14
口口口口 |①---|
②口口口 |----|
①口口① |②---|
口口口口 |----|
15
口口口口 |①---|
口①口口 |----|
口口②口 |②---|
口口③口 |③---|
16
口口口口 |①---|
口口口② |----|
①口口① |②---|
口口口口 |----|
17
口口口口 |①---|
口口①口 |----|
口②口口 |②---|
口③口口 |③---|
18
口口口口 |①---|
②口口② |----|
①口口① |②---|
口口口口 |----|
19
口口口口 |①---|
口①①口 |----|
口②②口 |②---|
口口口口 |----|
20
②口口① |①---|
②口口① |----|
口口口口 |②---|
口口口口 |----|
21
口③①口 |①---|
口②①口 |----|
口口口口 |②---|
口口口口 |③---|
22
口口口口 |①---|
口口口口 |----|
②口口① |②---|
②口口① |----|
23
口口口口 |①---|
口口口口 |----|
口③①口 |②---|
口②①口 |③---|
24
②口口① |①---|
②口口① |----|
口口口口 |②---|
口口口口 |----|
25
口③①口 |①---|
口②①口 |----|
口口口口 |②---|
口口口口 |③---|
26
口口口口 |①---|
口口口口 |----|
口①①口 |----|
口口口口 |----|
27
口口口口 |①---|
口①①口 |----|
口②②口 |②---|
口口口口 |----|
28
口口口口 |①---|
口④口口 |②---|
口③口② |③---|
①口口① |④---|
29
口口口口 |①---|
口口④口 |②---|
②口③口 |③---|
①口口① |④---|
30
口口口口 |①---|
口④口口 |②---|
口③口② |③---|
①口口① |④---|
31
④口口④ |①---|
③口口③ |②---|
②口口② |③---|
①口口① |④---|
32
口④口口 |①---|
口③口② |②---|
①口口① |③---|
口口口口 |④---|
33
口口④口 |①---|
②口③口 |②---|
①口口① |③---|
口口口口 |④---|
34
口口口口 |①---|
①口口① |----|
口口口口 |----|
口口口口 |----|
35
口③③口 |①---|
口②②口 |②---|
口①①口 |③---|
口口口口 |----|
36
口口③口 |①---|
口①①口 |----|
口口②口 |②---|
口口口口 |③---|
37
口③口口 |①---|
口①①口 |----|
口②口口 |②---|
口口口口 |③---|
38
口口③口 |①---|
口①①口 |----|
口口②口 |②---|
口口口口 |③---|
39
口③口口 |①---|
口①①口 |----|
口②口口 |②---|
口口口口 |③---|
40
口口口口 |①---|
口口口③ |----|
①口口① |②---|
口口口② |③---|
41
口口口口 |①---|
③口口口 |----|
①口口① |②---|
②口口口 |③---|
42
口口口口 |①---|
口口口③ |----|
①口口① |②---|
口口口② |③---|
43
口①口口 |①---|
口②口口 |②---|
口③口口 |③---|
口④口口 |④---|
44
口口口口 |①---|
口口②口 |----|
口口①口 |②---|
口口口口 |----|
45
口口口口 |①---|
口①口口 |----|
口②口口 |②---|
口口口口 |----|
46
口口口口 |①---|
口口②口 |----|
口口①口 |②---|
口口口口 |----|
47
口口口口 |①---|
口口口口 |②---|
①②③④ |③---|
口口口口 |④---|
48
口口口口 |①---|
口②③口 |②---|
口①④口 |③---|
口口口口 |④---|
49
口口口口 |①---|
口②③口 |②---|
口①④口 |③---|
口口口口 |④---|
50
口口口口 |①---|
口②③口 |②---|
口①④口 |③---|
口口口口 |④---|
51
③口口③ |①---|
②口口② |②---|
①口口① |③---|
口口口口 |----|
52
口口口口 |①---|
口④口口 |②---|
口③口② |③---|
①口口① |④---|
53
口口口口 |①---|
口口④口 |②---|
②口③口 |③---|
①口口① |④---|
54
口口口口 |①---|
口④口口 |②---|
口③口② |③---|
①口口① |④---|
55
④口口④ |①---|
③口口③ |②---|
②口口② |③---|
①口口① |④---|
56
口④口口 |①---|
口③口② |②---|
①口口① |③---|
口口口口 |④---|
57
口口④口 |①---|
②口③口 |②---|
①口口① |③---|
口口口口 |④---|
58
口口口口 |①---|
①口口① |----|
口口口口 |----|
口口口口 |----|
59
口③③口 |①---|
口②②口 |②---|
口①①口 |③---|
口口口口 |----|
60
口口③口 |①---|
口①①口 |----|
口口②口 |②---|
口口口口 |③---|
61
口③口口 |①---|
口①①口 |----|
口②口口 |②---|
口口口口 |③---|
62
口口③口 |①---|
口①①口 |----|
口口②口 |②---|
口口口口 |③---|
63
口③口口 |①---|
口①①口 |----|
口②口口 |②---|
口口口口 |③---|
64
口口口口 |①---|
口口口③ |----|
①口口① |②---|
口口口② |③---|
65
口口口口 |①---|
③口口口 |----|
①口口① |②---|
②口口口 |③---|
66
口口口口 |①---|
口口口③ |----|
①口口① |②---|
口口口② |③---|
67
口①口口 |①---|
口②口口 |②---|
口③口口 |③---|
口④口口 |④---|
68
口口④口 |①---|
口口③口 |②---|
口口②口 |③---|
口口①口 |④---|
69
口口口口 |--①-|
口①②口 |--②-|
口③④口 |--③-|
口口口口 |--④-|

不確定度: 0

最終更新:2014年08月01日 23:01