polygon
Sota Fujimori

EXTREME

Level: 9
BPM: 174
Notes: 687

1
口口口口 |----|
口口口口 |----|
口口口口 |----|
口口口口 |----|
2
口口口口 |①---|
口①①口 |----|
口①①口 |----|
口口口口 |----|
3
口口口口 |----|
口口口口 |----|
口口口口 |----|
口口口口 |----|
4
⑤口口⑥ |①--②|
③①②④ |--③-|
④②①③ |-④--|
⑥口口⑤ |⑤-⑥-|
5
口③口口 |①--②|
③②①口 |--③-|
口①②③ |----|
口口③口 |----|
6
⑥口口⑤ |①--②|
④②①③ |--③-|
③①②④ |-④--|
⑤口口⑥ |⑤-⑥-|
7
口口③⑥ |①--②|
口①②③ |--③-|
③②①口 |--④-|
④③口⑤ |⑤-⑥-|
8
⑤口口⑥ |①--②|
③①②④ |--③-|
④②①③ |-④--|
⑥口口⑤ |⑤-⑥-|
9
④③口④ |①--②|
③②①口 |--③-|
口①②③ |----|
口口③口 |④---|
10
⑥口口⑤ |①--②|
④②①③ |--③-|
③①②④ |-④--|
⑤口口⑥ |⑤-⑥-|
11
口口③口 |①--②|
⑤①②③ |--③-|
③②①④ |--④-|
口③口口 |⑤---|
12
②口②口 |①---|
口口口口 |②---|
口口口口
①口①口

口③口③
⑤口⑤口
口口口口 |③-④-|
⑥④⑥④ |⑤-⑥-|
13
①④①④ |①-②-|
口口口⑤ |③-④-|
③②③② |----|
口口口口 |⑤---|
14
②③②③ |①---|
口⑤口⑤ |②---|
口④口④ |③-④-|
①⑥①⑥ |⑤-⑥-|
15
③口③口 |①-②-|
④口④⑤ |③-④-|
①口①口 |----|
②口②口 |⑤---|
16
②口②口 |①---|
口①口口 |②---|
口口口口
①口①口

口③口③
⑤口⑤口
口口口口 |③-④-|
⑥④⑥④ |⑤-⑥-|
17
①④①④ |①-②-|
口口口⑤ |③-④-|
③②③② |----|
口口口口 |⑤---|
18
②口②口 |①---|
口①口口 |②---|
口口口口
①口①口

口③口③
口⑤口⑤
口④口④ |③-④-|
口⑥口⑥ |⑤-⑥-|
19
③口③口 |①-②-|
④口④口 |③-④-|
①口①口 |----|
②口②口 |----|
20
①口口口 |①---|
口口③口 |②---|
口口①口 |③---|
①②③④ |④---|
21
①口③口 |①---|
口口口① |②---|
①②③④ |③---|
口口口口 |④---|
22
①口口口 |①---|
口①口口 |②---|
口口口口 |③---|
①②③④ |④---|
23
①口口口 |①---|
口口口① |②---|
①②③④ |③---|
口口口口 |④---|
24
①口口口 |①---|
口①③口 |②---|
口口口口 |③---|
①②③④ |④---|
25
①口③口 |①---|
口口口① |②---|
①②③④ |③---|
口口口口 |④---|
26
①口口口 |①---|
口①口口 |②---|
口口口口 |③---|
①②③④ |④---|
27
②口口② |①--②|
口口口口 |--③-|
①口口①
口③③口

口口口口
口④口④
口④④④ |----|
口口口口 |④---|
28
⑤①①③ |①--②|
④口②⑥ |③-④-|
⑥⑤口⑦ |⑤--⑥|
口⑦口口 |--⑦-|
29
②口口口 |-①--|
口①③③ |②--③|
口口④口 |----|
口口口① |--④-|
30
⑤①①③ |①--②|
④口②⑥ |③-④-|
⑥⑤口口 |⑤-⑥-|
⑦口口口 |--⑦-|
31
②口口③ |-①--|
口口口口 |②-③-|
⑤口⑥口 |--④-|
口④口① |⑤-⑥-|
32
⑤①①③ |①--②|
④口②⑥ |③-④-|
⑥⑤口⑦ |⑤-⑥-|
口⑦口口 |--⑦-|
33
②口口口 |-①--|
口①③③ |②--③|
口口④口 |----|
口口口① |--④-|
34
⑤①①③ |①--②|
④口②⑥ |③-④-|
⑥⑤口口 |⑤-⑥-|
⑦口口口 |--⑦-|
35
②口口③ |-①--|
口口口口 |②-③-|
口口口口 |----|
口口口① |----|
36
口口口口 |①---|
口口口口 |----|
①②口口 |②---|
口①②口 |----|
37
口口口口 |①---|
口口口口 |----|
口口①口
口口口①

②口口③
④口口⑤
⑥口口⑦ |②③④⑤|
⑧口口⑨ |⑥⑦⑧⑨|
38
口口口口 |①---|
口②口口 |----|
口①②口 |②---|
口口①口 |----|
39
⑧①口⑨ |①---|
⑥口①⑦ |----|
④口口⑤ |②③④⑤|
②口口③ |⑥⑦⑧⑨|
40
口口口口 |①---|
口口口口 |----|
口②①口 |②---|
口①②口 |----|
41
口口口口 |①---|
口口口口 |----|
口口口①
①口口口

②口口③
④口口⑤
⑥口口⑦ |②③④⑤|
⑧口口⑨ |⑥⑦⑧⑨|
42
口口口口 |①---|
口②口口 |----|
口①②口 |②---|
口口①口 |----|
43
②口口② |①--②|
口③④口 |----|
①⑤⑥① |--③④|
口口口口 |⑤⑥--|
44
④②④② |①---|
口口口口 |②---|
口口口口 |③---|
①口口③ |④---|
45
④②④② |①---|
口口口口 |②---|
口口口口 |③---|
①口口③ |④---|
46
④②④② |①---|
口口口口 |②---|
口③①口 |③---|
①口口③ |④---|
47
④②④② |①---|
口口口口 |②---|
口③①口 |③---|
①口口③ |④---|
48
④②④② |①---|
口口口口 |②---|
①口口③ |③---|
①③①③ |④---|
49
④②④② |①---|
口口口口 |②---|
①口口③ |③---|
①③①③ |④---|
50
口④④④ |①--②|
②②②口 |----|
口口口口 |③--④|
①③①③ |----|
51
口口口口 |①-②-|
③⑤⑥④ |③-④-|
①⑥⑤② |⑤-⑥-|
⑦口口⑦ |⑦---|
52
①②③④ |①-②-|
口口口⑤ |③-④-|
口口口⑥ |⑤-⑥-|
口口⑧⑦ |⑦-⑧-|
53
⑤⑥⑦⑧ |①-②-|
④口口口 |③-④-|
③口口口 |⑤-⑥-|
②①口口 |⑦-⑧-|
54
口口口口 |①-②-|
⑧口口① |③-④-|
⑦口口② |⑤-⑥-|
⑥⑤④③ |⑦-⑧-|
55
①②③④ |①-②-|
口口口⑤ |③-④-|
口口口⑥ |⑤-⑥-|
口口⑧⑦ |⑦-⑧-|
56
⑤⑥⑦⑧ |①-②-|
④口口口 |③-④-|
③口⑤口 |⑤-⑥-|
②①口口 |⑦-⑧-|
57
口口口口 |①-②-|
⑧口⑤① |③-④-|
⑦口口② |⑤-⑥-|
⑥⑤④③ |⑦-⑧-|
58
⑦口口⑨ |①-②-|
⑫①口② |③④⑤⑥|
⑪⑤⑥口 |⑦-⑧⑨|
⑧③④⑩ |⑩⑪-⑫|
59
⑪①②口 |①②③④|
口③④口 |⑤⑥⑦⑧|
⑪⑤⑥口 |⑨-⑩-|
⑨⑦⑧⑩ |⑪---|
60
口①口① |①---|
②口②① |②---|
③③②口 |③---|
口③口口 |----|
61
口口口口 |①--②|
②④⑥③ |--③-|
口口口口 |④-⑤-|
口口⑤① |--⑥-|
62
①口①口 |①---|
①②口② |②---|
口②③③ |③---|
口口③口 |----|
63
口口③口 |①--②|
口口口口 |--③-|
口②口口 |④---|
①④④口 |----|
64
口①口① |①---|
②口②① |②---|
③③②口 |③---|
口③口口 |----|
65
口口口口 |①--②|
②④⑥③ |--③-|
口口口口 |④-⑤-|
口口⑤① |--⑥-|
66
①口①口 |①---|
①②口② |②---|
口②③③ |③---|
口口③口 |----|
67
口口口口 |①--②|
③⑤口② |--③-|
口⑥口口 |④-⑤-|
①口④口 |⑥---|
68
口①①① |①---|
②口②① |②---|
③③②口 |③---|
口③口口 |----|
69
口口口口 |①--②|
②④⑥③ |--③-|
口口口口 |④-⑤-|
口口⑤① |--⑥-|
70
①①①口 |①---|
①②口② |②---|
口②③③ |③---|
口口③口 |----|
71
口口口口 |①--②|
口口③口 |--③-|
口②口口 |④---|
①④④口 |----|
72
口①①① |①---|
②口②① |②---|
③③②口 |③---|
口③口口 |----|
73
口口口口 |①--②|
②④⑥③ |--③-|
口口口口 |④-⑤-|
口口⑤① |--⑥-|
74
①①①口 |①---|
①②口② |②---|
口②③③ |③---|
口口③口 |----|
75
口④④口 |①--②|
②⑦⑧③ |--③-|
口⑤⑥口 |④---|
①口口口 |⑤⑥⑦⑧|
76
口口口口 |①---|
口口口口 |----|
②口口② |②---|
①②②① |----|
77
口②②口 |①---|
②①①② |----|
口①①口 |②---|
口口口口 |----|
78
①②②① |①---|
②口口② |----|
口口口口 |②---|
口口口口 |----|
79
口口口口 |①---|
口①①口 |----|
②①①② |②---|
口②②口 |----|
80
②口口② |①---|
①口口① |----|
口②②口 |②---|
①口口① |----|
81
口口口口 |①---|
②①①② |----|
①②②① |②---|
口①①口 |----|
82
口①①口 |①---|
口口口口 |----|
①②②① |②---|
口②②口 |----|
83
②③④② |①--②|
③⑤⑤④ |--③-|
④⑤⑤③ |④---|
①④③① |⑤---|


不确定度: 0

最終更新:2012年11月08日 18:24