PULSE LASER
ヒゲドライバー

ADVANCED

Level: 7
BPM: 165
Notes: 463

1
口口口口 |----|
口口口口 |----|
口口口口 |----|
口口口口 |----|
2
口①口口 |--①-|
口②口口 |--②-|
口③口口 |--③-|
口④口口 |--④-|
3
口口①口 |--①-|
口口②口 |--②-|
口口③口 |--③-|
口口④口 |--④-|
4
①⑤⑥② |①--②|
口口口口 |--③-|
口口口口 |④--⑤|
③口口④ |--⑥-|
5
口⑥口① |-①--|
口②⑤口 |②-③-|
口口③口 |④-⑤-|
口④口口 |⑥---|
6
②⑥⑤① |①--②|
口口口口 |--③-|
口口口口 |④--⑤|
④口口③ |--⑥-|
7
①口口口 |-①--|
口⑤②口 |②-③-|
口③口口 |④-⑤-|
口口④⑥ |⑥---|
8
①⑤⑥② |①--②|
口口口口 |--③-|
口口口口 |④--⑤|
③口口④ |--⑥-|
9
口口口① |-①--|
口②⑦口 |②-③-|
口⑥③口 |④-⑤-|
口④⑤口 |⑥-⑦-|
10
②口⑤① |①--②|
口⑥口口 |--③-|
口口口口 |④--⑤|
④口口③ |--⑥-|
11
④②⑥⑧ |①-②-|
口口口口 |③-④-|
口口口口 |⑤-⑥-|
③①⑤⑦ |⑦-⑧-|
12
口口口口 |--①-|
⑤④口⑥ |②-③④|
②⑦③① |--⑤-|
口口口口 |⑥-⑦-|
13
口③②① |①--②|
口⑤④口 |--③-|
口口⑥口 |④-⑤-|
口⑦口口 |⑥-⑦-|
14
口口口口 |--①-|
⑥口④⑤ |②-③④|
①③⑦② |--⑤-|
口口口口 |⑥-⑦-|
15
①②③口 |①--②|
口④⑤口 |--③-|
口⑥口口 |④-⑤-|
口口⑦口 |⑥-⑦-|
16
口口口口 |--①-|
⑤④口⑥ |②-③④|
②⑦③① |--⑤-|
口口口口 |⑥-⑦-|
17
口③②① |①--②|
口⑤④口 |--③-|
口口⑥口 |④-⑤-|
口⑦口口 |⑥-⑦-|
18
口口口口 |----|
②③口② |--①-|
①口口① |②---|
口口口口 |--③-|
19
④②⑥⑧ |①-②-|
口口口口 |③-④-|
口口口口 |⑤-⑥-|
③①⑤⑦ |⑦-⑧-|
20
口④④口 |①--②|
口①②口 |----|
口①②口 |③--④|
口③③口 |----|
21
③⑤⑤③ |①--②|
②口口① |----|
②口口① |③-④-|
口④④口 |⑤---|
22
口④④口 |①--②|
口①②口 |----|
口①②口 |③--④|
口③③口 |----|
23
⑥口口⑦ |①--②|
②口③① |--③-|
②口口① |④-⑤-|
④口口⑤ |⑥-⑦-|
24
口④④口 |①--②|
口①②口 |----|
口①②口 |③--④|
口③③口 |----|
25
口⑥⑤口 |①--②|
②口③① |--③-|
②④口① |④-⑤-|
口口口口 |⑥---|
26
口口口口 |---①|
④口口③ |--②-|
②口口① |---③|
口口口口 |--④-|
27
口①①口 |①---|
口②②口 |②---|
口③③口 |③---|
口④④口 |④---|
28
③①①口 |--①-|
③④口口 |--②-|
口④⑤口 |③--④|
②口⑤② |--⑤-|
29
口①①③ |--①-|
口口④③ |--②-|
口⑤④口 |③--④|
②⑤口② |--⑤-|
30
③①①口 |--①-|
③④口口 |--②-|
口④⑤口 |③--④|
②口⑤② |--⑤-|
31
⑤口口④ |①-②-|
⑦口口② |③-④-|
①口口⑧ |⑤-⑥-|
③口口⑥ |⑦-⑧-|
32
③①①口 |--①-|
③④口口 |--②-|
口④⑤口 |③--④|
②口⑤② |--⑤-|
33
口①①口 |--①-|
口口口口 |--②-|
口口口口
②口口②

③⑤⑤③
口口口口
口口口口 |③--④|
口④④口 |--⑤-|
34
口②口口 |①---|
口口口口 |----|
①口口① |----|
口口口口 |--②-|
35
口口口口 |①-②-|
④口口③ |③-④-|
②口口⑤ |⑤---|
口口①⑤ |----|
36
①⑤⑥② |①--②|
口口口口 |--③-|
口口口口 |④--⑤|
③口口④ |--⑥-|
37
口⑥口① |-①--|
口②⑤口 |②-③-|
口口③口 |④-⑤-|
口④口口 |⑥---|
38
②⑥⑤① |①--②|
口口口口 |--③-|
口口口口 |④--⑤|
④口口③ |--⑥-|
39
①口口口 |-①--|
口⑤②口 |②-③-|
口③口口 |④-⑤-|
口口④⑥ |⑥---|
40
①⑤⑥② |①--②|
口口口口 |--③-|
口口口口 |④--⑤|
③口口④ |--⑥-|
41
口口口① |-①--|
口②⑦口 |②-③-|
口⑥③口 |④-⑤-|
口④⑤口 |⑥-⑦-|
42
②口⑤① |①--②|
口⑥口口 |--③-|
口口口口 |④--⑤|
④口口③ |--⑥-|
43
④②⑥⑧ |①-②-|
口口口口 |③-④-|
口口口口 |⑤-⑥-|
③①⑤⑦ |⑦-⑧-|
44
口口口口 |--①-|
口①①口 |----|
口口口口 |----|
口口口口 |----|
45
口口口口 |--①-|
口口口口 |----|
口①①口 |----|
口口口口 |----|
46
口①①口 |--①-|
口口口口 |----|
口口口口 |----|
口口口口 |----|
47
④口口④ |①---|
③口口③ |②---|
②口口② |③---|
①口口① |④---|
48
口③④口 |--①-|
口①①口 |--②-|
口⑤②口 |③--④|
口口口口 |--⑤-|
49
口③④口 |--①-|
口①①口 |--②-|
口口口口 |③--④|
口⑤②口 |--⑤-|
50
③口口④ |--①-|
口①①口 |--②-|
口口口口 |③--④|
⑤口口② |--⑤-|
51
口④口⑤ |①-②-|
口②③⑤ |③-④-|
口口①口 |⑤---|
口口口口 |----|
52
③①①口 |--①-|
③④口口 |--②-|
口④⑤口 |③--④|
②口⑤② |--⑤-|
53
口①①③ |--①-|
口口④③ |--②-|
口⑤④口 |③--④|
②⑤口② |--⑤-|
54
③①①口 |--①-|
③④口口 |--②-|
口④⑤口 |③--④|
②口⑤② |--⑤-|
55
⑤口口④ |①-②-|
⑦口口② |③-④-|
①口口⑧ |⑤-⑥-|
③口口⑥ |⑦-⑧-|
56
③①①口 |--①-|
③④口口 |--②-|
口④⑤口 |③--④|
②口⑤② |--⑤-|
57
口①①口 |--①-|
口口口口 |--②-|
口口口口
②口口②

③⑤⑤③
口口口口
口口口口 |③--④|
口④④口 |--⑤-|
58
口②口口 |①---|
口口口口 |----|
①口口① |----|
口口口口 |--②-|
59
口口口口 |①-②-|
④口口③ |③-④-|
②口口⑤ |⑤---|
口口①⑤ |----|
60
①⑤⑥② |①--②|
口口口口 |--③-|
口口口口 |④--⑤|
③口口④ |--⑥-|
61
口⑥口① |-①--|
口②⑤口 |②-③-|
口口③口 |④-⑤-|
口④口口 |⑥---|
62
②⑥⑤① |①--②|
口口口口 |--③-|
口口口口 |④--⑤|
④口口③ |--⑥-|
63
①口口口 |-①--|
口⑤②口 |②-③-|
口③口口 |④-⑤-|
口口④⑥ |⑥---|
64
①⑤⑥② |①--②|
口口口口 |--③-|
口口口口 |④--⑤|
③口口④ |--⑥-|
65
口口口① |-①--|
口②⑦口 |②-③-|
口⑥③口 |④-⑤-|
口④⑤口 |⑥-⑦-|
66
②口⑤① |①--②|
口⑥口口 |--③-|
口口口口 |④--⑤|
④口口③ |--⑥-|
67
④②⑥⑧ |①-②-|
口口口口 |③-④-|
口口口口 |⑤-⑥-|
③①⑤⑦ |⑦-⑧-|
68
④②⑥⑧ |①-②-|
口口口口 |③-④-|
口口口口 |⑤-⑥-|
③①⑤⑦ |⑦-⑧-|
69
口①口口 |--①-|
口口②口 |--②-|
口③口口 |--③-|
口口④口 |--④-|

不確定度: 0

最終更新:2014年08月01日 23:00