モンスターのかくれんぼ
Rihwa

BASIC

Level: 3
BPM: 150
Notes: 139

1
口口口口 |----|
口口口口 |----|
口口口口 |----|
口口口口 |----|
2
口口口口 |①---|
①口口口 |----|
口口口口 |----|
口口口口 |----|
3
口口口口 |①---|
口口口口 |----|
口①口口 |----|
口口口口 |----|
4
口口口口 |①---|
口口①口 |----|
口口口口 |----|
口口口口 |----|
5
口口口口 |①---|
口口口口 |----|
口口口① |----|
口②②口 |--②-|
6
口口口口 |----|
口口口口 |①---|
②③③口 |②---|
①口口口 |--③-|
7
口口口口 |----|
口③③② |①---|
口口口① |②---|
口口口口 |--③-|
8
②③③口 |----|
①口口口 |①---|
口口口口 |②---|
口口口口 |--③-|
9
①口口① |----|
口②②口 |--①-|
口口口口 |----|
口口口口 |--②-|
10
②口口口 |----|
①口口口 |①---|
口③③口 |②---|
口口口口 |--③-|
11
口口口口 |----|
口口口② |①---|
口口口① |②---|
口③③口 |--③-|
12
口口口口 |----|
口口口口 |①---|
②③③口 |②---|
①口口口 |--③-|
13
口口口口 |----|
口口口口 |----|
口口口口 |----|
口口口口 |----|
14
口口口口 |①---|
口②口口 |----|
①口口口 |②---|
口口口口 |----|
15
口口口口 |①---|
口口口② |----|
口口①口 |②---|
口口口口 |----|
16
口口口口 |①---|
口口②口 |----|
口口口① |②---|
口口口口 |----|
17
口口口口 |①---|
②口口口 |----|
口①口口 |②---|
口口口口 |----|
18
口口口口 |①---|
口②②口 |----|
口①口口 |②---|
口口口口 |----|
19
口口口口 |①---|
口②②口 |----|
口口①口 |②---|
口口口口 |----|
20
口口口口 |①---|
口口口口 |----|
口口口口 |----|
①口口① |----|
21
口口口口 |①---|
口口口口 |----|
口①①口 |----|
口口口口 |----|
22
口口口口 |①---|
口口口② |----|
口口口① |②---|
口口口口 |----|
23
口口口口 |①---|
口口①口 |----|
口口②口 |②---|
口口口口 |----|
24
口口口口 |①---|
②口口口 |----|
①口口口 |②---|
口口口口 |----|
25
口口口口 |①---|
口①口口 |----|
口②口口 |②---|
口口口口 |----|
26
口口口口 |①---|
口口口口 |----|
口口口口 |②---|
口②①口 |----|
27
口口口口 |①---|
口口口口 |----|
口②①口 |②---|
口口口口 |----|
28
口口口口 |①---|
口②①口 |----|
口口口口 |②---|
口口口口 |----|
29
①口口① |①---|
口口口口 |----|
口口口口 |----|
口口口口 |----|
30
口口口口 |----|
口口口口 |----|
口口口口 |----|
口口口口 |----|
31
口口④口 |①---|
口口③口 |②---|
①②口口 |③---|
口口口口 |④---|
32
口①口口 |①---|
口②口口 |②---|
口口③④ |③---|
口口口口 |④---|
33
口口口口 |①---|
口口口口 |②---|
口③④口 |③---|
口①②口 |④---|
34
口口口口 |①---|
①口口① |----|
②口口② |②---|
口口口口 |----|
35
口③口口 |①---|
口②口口 |②---|
口①口口 |③---|
口口口口 |----|
36
口口口口 |①---|
口口口口 |----|
口①①口 |----|
口口口口 |----|
37
口口口口 |①---|
④③②① |②---|
口口口口 |③---|
口口口口 |④---|
38
口口口口 |①---|
口③③口 |②---|
①②口口 |③---|
口口口口 |----|
39
口④口口 |①---|
口③口口 |②---|
口口②① |③---|
口口口口 |④---|
40
口口①口 |①---|
口口②口 |②---|
④③口口 |③---|
口口口口 |④---|
41
口口口口 |①---|
口口口口 |②---|
口④③口 |③---|
口②①口 |④---|
42
口口口口 |①---|
①口口① |----|
②口口② |②---|
口口口口 |----|
43
④③②① |①---|
口口口口 |②---|
口口口口 |③---|
口口口口 |④---|
44
口口口口 |①---|
①②③④ |②---|
口口口口 |③---|
口口口口 |④---|
45
口口口口 |①---|
口②②口 |----|
口①①口 |②---|
口口口口 |----|
46
口口口口 |①---|
②口口② |----|
①口口① |②---|
口口口口 |----|
47
口口①口 |①---|
口口②口 |②---|
口口③口 |③---|
口口④口 |④---|
48
口④口口 |①---|
口③口口 |②---|
口②口口 |③---|
口①口口 |④---|
49
①口口① |①---|
口口口口 |----|
口口口口 |----|
口口口口 |----|

不確定度: 0

最終更新:2014年08月01日 22:58