モンスターのかくれんぼ
Rihwa

ADVANCED

Level: 5
BPM: 150
Notes: 240

1
口口口口 |----|
口口口口 |----|
口口口口 |----|
口口口口 |----|
2
④③②① |①---|
口口口口 |②---|
口口口口 |③---|
口口口口 |④---|
3
口口口口 |①---|
④③②① |②---|
口口口口 |③---|
口口口口 |④---|
4
口口口口 |①---|
口口口口 |②---|
④③②① |③---|
口口口口 |④---|
5
口口口口 |①---|
口口口口 |②---|
口④④口 |③---|
口③②① |--④-|
6
③②口③ |--①-|
口口①口 |②---|
口④④口 |③---|
口口口口 |--④-|
7
口②口口 |--①-|
③口①③ |②---|
口④④口 |③---|
口口口口 |--④-|
8
口②口口 |--①-|
口口①口 |②---|
③口口③ |③---|
口④④口 |--④-|
9
口口口口 |--①-|
②口口② |--②-|
口①①口
口口口口

③口口③
口口口口
口④④口 |--③-|
口口口口 |--④-|
10
③②口③ |--①-|
口口①口 |②---|
口④④口 |③---|
口口口口 |--④-|
11
口②口口 |--①-|
③口①③ |②---|
口④④口 |③---|
口口口口 |--④-|
12
口②口口 |--①-|
口口①口 |②---|
③口口③ |③---|
口④④口 |--④-|
13
口口口口 |----|
口口口口 |----|
口口口口 |----|
口口口口 |----|
14
口口口口 |----|
口②③口 |--①-|
口口①口 |②---|
口口口口 |③---|
15
口口④② |①---|
口③口① |②---|
口口口口 |③-④-|
口口口口 |----|
16
口口口口 |----|
口③②口 |--①-|
口①口口 |②---|
口口口口 |③---|
17
口口口口 |①---|
①口口口 |②---|
②③④口 |③---|
口口口口 |④---|
18
口口口口 |①---|
口③口口 |②---|
口②口口 |③---|
口①口口 |----|
19
口口口口 |①---|
口口③口 |②---|
口口②口 |③---|
口口①口 |----|
20
口口口口 |①---|
口口口口 |----|
口口口口 |----|
①口口① |----|
21
口口口口 |①---|
口①①口 |----|
口①①口 |----|
口口口口 |----|
22
口口④口 |①---|
口③口口 |②---|
②口口口 |③---|
口①①口 |④---|
23
口①口口 |①---|
口口②口 |②---|
口口④③ |③---|
口口口口 |④---|
24
口口④口 |①---|
口③口口 |②---|
②口口口 |③---|
口①①口 |④---|
25
口①口口 |①---|
口口②口 |②---|
口口④③ |③---|
口口口口 |④---|
26
口口口口 |①---|
③④④③ |②---|
口口口口 |③---|
②①①② |④---|
27
口口口口 |①---|
口口口口 |②---|
③①①③ |③---|
④②②④ |④---|
28
口口口口 |①---|
③口口③ |②---|
④①①④ |③---|
口②②口 |④---|
29
口①①口 |①---|
口口口口 |----|
口②②口 |②---|
口口口口 |----|
30
口口口口 |----|
口口口口 |----|
口①①口 |----|
口口口口 |①---|
31
③③②① |①---|
④④②① |②---|
口口口口 |③---|
口口口口 |④---|
32
口口口口 |①---|
口口口口 |②---|
②①①② |③---|
③④④③ |④---|
33
⑤口④⑤ |①---|
口③②口 |②-③-|
口①①口 |④---|
口口口口 |⑤---|
34
口口口口 |①---|
①③口① |②-③-|
口④②口 |----|
口口口口 |--④-|
35
口口①① |①---|
口口②② |--②-|
口口口口 |----|
口口口口 |----|
36
口口口口 |①---|
口口口口 |----|
①①口口 |----|
口口口口 |----|
37
口⑧⑦口 |①-②-|
口⑥⑤口 |③-④-|
口④③口 |⑤-⑥-|
口②①口 |⑦-⑧-|
38
②口口① |①-②-|
④口口③ |③-④-|
口口口⑤ |⑤---|
口口口口 |----|
39
③②②③ |①---|
口口口口 |--②-|
口口口口 |----|
口①①口 |③---|
40
口口口口 |①---|
④③②① |②---|
④③②① |③---|
口口口口 |④---|
41
口口口口 |①---|
口④④口 |②---|
口③③口 |③---|
①②②① |④---|
42
②①①② |①---|
口口口口 |--②-|
口口口口 |----|
口③③口 |③---|
43
口①①口 |①---|
②口口② |②---|
口③③口 |③---|
④口口④ |④---|
44
④口口④ |①---|
口③③口 |②---|
②口口② |③---|
口①①口 |④---|
45
口①①口 |①---|
口口口口 |----|
口②②口 |②---|
口口口口 |----|
46
口口口口 |----|
口口口口 |----|
口口口口 |----|
口口口口 |----|
47
口口口口 |①---|
①②③④ |②---|
口口口口 |③---|
口口口口 |④---|
48
④③②① |①---|
口口口口 |②---|
口口口口 |③---|
口口口口 |④---|
49
口口口口 |①---|
口①①口 |----|
口口口口 |----|
口口口口 |----|

不確定度: 0

最終更新:2014年08月01日 22:57