回レ!雪月花
歌組雪月花

BASIC

Level: 4
BPM: 160
Notes: 225

1
口口口口 |----|
口口口口 |----|
口口口口 |----|
口口口口 |----|
2
口口口口 |①---|
②⑥⑤② |②---|
①④③① |③-④-|
口口口口 |⑤-⑥-|
3
④口口② |①---|
口口口口 |②---|
③口口① |③---|
口口口口 |④---|
4
④口口② |①---|
口口口口 |②---|
③口口① |③---|
口口口口 |④---|
5
口口口口 |①---|
④口口② |②---|
口口口口 |③---|
③口口① |④---|
6
口口口口 |①---|
口②②口 |----|
口②②口 |----|
口①①口 |②---|
7
口口口口 |①---|
口口口口 |②---|
②④口口 |③---|
①③口口 |④---|
8
口口口口 |①---|
口口口口 |②---|
口口②④ |③---|
口口①③ |④---|
9
②④口口 |①---|
①③口口 |②---|
口口口口 |③---|
口口口口 |④---|
10
口口②口 |①---|
口口①口 |②---|
口④③口 |--③-|
口口⑤口 |④-⑤-|
11
口口口口 |①---|
②④口口 |②---|
①③口口 |③---|
口口口口 |④---|
12
口口口口 |①---|
口口②口 |②---|
口口①口 |③---|
③口口③ |----|
13
口口口口 |①---|
口口④② |②---|
口口③① |③---|
口口口口 |④---|
14
口口口口 |①---|
口②口口 |②---|
口①口口 |③---|
③口口③ |----|
15
口口口口 |①---|
②④口口 |②---|
①③口口 |③---|
口口口口 |④---|
16
口口口口 |①---|
口口②④ |②---|
口口①③ |③---|
口口口口 |④---|
17
口口口口 |①---|
口②②口 |----|
口①①口 |②---|
口口口口 |----|
18
口口口口 |①---|
口②口口 |②---|
①口③③ |③---|
口口口口 |----|
19
口口口口 |①---|
口①①口 |----|
口②②口 |②---|
口口口口 |----|
20
④口口② |①---|
口口口口 |②---|
③口口① |③---|
口口口口 |④---|
21
④口口② |①---|
口口口口 |②---|
③口口① |③---|
口口口口 |④---|
22
口口口口 |①---|
④口口② |②---|
口口口口 |③---|
③口口① |④---|
23
口口口口 |①---|
口②②口 |----|
口②②口 |----|
口①①口 |②---|
24
口口口口 |①---|
口口口口 |----|
口口口口 |----|
口①①口 |----|
25
口口口口 |①---|
③口口② |----|
口①①口 |②---|
口口口口 |③---|
26
口口口口 |①---|
口口口口 |----|
口口口口 |----|
口①①口 |----|
27
口口口口 |①---|
②口口② |----|
口①①口 |②---|
口口口口 |----|
28
①口口口 |①---|
口②口口 |②---|
③口口口 |③---|
口④口口 |④---|
29
口口口④ |①---|
口口③口 |②---|
口口口② |③---|
口口①口 |④---|
30
口①①口 |①---|
口②②口 |----|
口口口口 |②---|
口口口口 |----|
31
口口口口 |①---|
口②口口 |②---|
①口③③ |③---|
口口口口 |----|
32
口口口口 |①---|
口口口口 |----|
口②②口 |②---|
口①①口 |----|
33
口口口口 |①---|
①口口① |----|
口口口口 |----|
口口口口 |----|
34
口口口口 |①---|
口口口口 |----|
①口口① |②---|
口②②口 |----|
35
口口口口 |①---|
口②②口 |----|
口①①口 |②---|
口口口口 |----|
36
口①①口 |①---|
口口口口 |----|
口口口口 |----|
口口口口 |----|
37
口口口口 |①---|
口口①口 |----|
口口口口 |----|
口口口口 |----|
38
口口口口 |①---|
口①口口 |----|
口口口口 |----|
口口口口 |----|
39
口口口口 |①---|
口口口口 |②---|
④③②① |③---|
口口口口 |④---|
40
口口口口 |①---|
口口口口 |----|
②口口② |②---|
口①①口 |----|
41
④口口口 |①---|
③口口口 |②---|
②口口口 |③---|
①口口口 |④---|
42
口口口① |①---|
口口口② |②---|
口口口③ |③---|
口口口④ |④---|
43
口口口口 |①---|
口②口口 |----|
口①口口 |②---|
口口口口 |----|
44
口口口口 |①---|
口口①口 |----|
口口②口 |②---|
口口口口 |----|
45
④③②① |①---|
口口口口 |②---|
口口口口 |③---|
口口口口 |④---|
46
口口口口 |①---|
口口口口 |②---|
口口口口 |③---|
①②③④ |④---|
47
口口口口 |①---|
口②口口 |----|
口①口口 |②---|
口口口口 |----|
48
口口口口 |①---|
口口①口 |----|
口口②口 |②---|
口口口口 |----|
49
口口口口 |①---|
①①②② |----|
口口口口 |②---|
口口口口 |----|
50
口口口口 |①---|
口口口口 |----|
①①②② |②---|
口口口口 |----|
51
口口④口 |①---|
口③口口 |②---|
口口②口 |③---|
口①口口 |④---|
52
口①口口 |①---|
口口②口 |②---|
口③口口 |③---|
口口④口 |④---|
53
口口口口 |①---|
①①②② |----|
口口口口 |②---|
口口口口 |----|
54
口口口口 |①---|
口口口口 |----|
①①②② |②---|
口口口口 |----|
55
口口口口 |①---|
①②③④ |②---|
口口口口 |③---|
口口口口 |④---|
56
口①口口 |①---|
口口②口 |②---|
口③③口 |③---|
口口口口 |----|
57
④口口② |①---|
口口口口 |②---|
③口口① |③---|
口口口口 |④---|
58
④口口② |①---|
口口口口 |②---|
③口口① |③---|
口口口口 |④---|
59
口口口口 |①---|
④口口② |②---|
口口口口 |③---|
③口口① |④---|
60
口口口口 |①---|
口②②口 |----|
口②②口 |----|
口①①口 |②---|

不確定度: 0

最終更新:2014年08月01日 22:56