回レ!雪月花
歌組雪月花

ADVANCED

Level: 7
BPM: 160
Notes: 422

1
口口口口 |----|
口口口口 |----|
口口口口 |----|
口口口口 |----|
2
③⑤⑥④ |①---|
口⑤口④ |②---|
②⑤口② |③-④-|
①口口① |⑤-⑥-|
3
口口口口 |①---|
口口口口 |②-③-|
③⑤②⑥ |④---|
①①④④ |⑤-⑥-|
4
③⑤②⑥ |①---|
①①④④ |②-③-|
口口口口 |④---|
口口口口 |⑤-⑥-|
5
口口口口 |①---|
口口口口 |②-③-|
③⑤②⑥ |④---|
①①④④ |⑤-⑥-|
6
口①②② |①---|
口①口口 |----|
口口口口 |----|
②②口口 |②---|
7
②②口⑦ |①-②-|
④④口⑤ |③-④-|
⑥⑥口③ |⑤-⑥-|
⑧⑧口① |⑦-⑧-|
8
②②⑦口 |①-②-|
④④⑤口 |③-④-|
⑥⑥③口 |⑤-⑥-|
⑧⑧①口 |⑦-⑧-|
9
②②口⑦ |①-②-|
④④口⑤ |③-④-|
⑥⑥口③ |⑤-⑥-|
⑧⑧口① |⑦-⑧-|
10
②②口⑤ |①-②-|
④④口⑥ |③-④-|
口口③⑦ |--⑤-|
口口①口 |⑥-⑦-|
11
④口口口 |①---|
口③口口 |②---|
②口口口 |③---|
口①口口 |④---|
12
口①口口 |①---|
②口口口 |②---|
口③③口 |③---|
口口口口 |----|
13
口口口④ |①---|
口口③口 |②---|
口口口② |③---|
口口①口 |④---|
14
口口①口 |①---|
口口口② |②---|
口③③口 |③---|
口口口口 |----|
15
④口口口 |①---|
口③口口 |②---|
②口口口 |③---|
口①口口 |④---|
16
口①口口 |①---|
②口口口 |②---|
口③口口 |③---|
④口口口 |④---|
17
口口①① |①---|
口口口口 |----|
口口口口 |②---|
口口②② |----|
18
口口③口 |①---|
口②①口 |②---|
口①②口 |③---|
口③口口 |----|
19
口口口口 |①---|
①②③④ |②---|
④③②① |③---|
口口口口 |④---|
20
②②口⑦ |①-②-|
④④口⑤ |③-④-|
⑥⑥口③ |⑤-⑥-|
⑧⑧口① |⑦-⑧-|
21
②②⑦口 |①-②-|
④④⑤口 |③-④-|
⑥⑥③口 |⑤-⑥-|
⑧⑧①口 |⑦-⑧-|
22
②②口⑦ |①-②-|
④④口⑤ |③-④-|
⑥⑥口③ |⑤-⑥-|
⑧⑧口① |⑦-⑧-|
23
口口②② |①---|
口口口口 |----|
口口①口 |----|
②②①口 |②---|
24
口口口口 |①---|
口口①口 |②---|
口②口口 |----|
口口口口 |----|
25
口口口口 |①---|
④①口③ |②---|
⑥口②⑤ |③-④-|
口口口口 |⑤-⑥-|
26
口口口口 |①---|
口口①口 |②---|
口②口口 |----|
口口口口 |----|
27
口③③口 |①---|
口①口口 |②---|
口口②口 |③---|
口口口口 |----|
28
④口口口 |①---|
口③口口 |②---|
②口口口 |③---|
口①口口 |④---|
29
口①口口 |①---|
②口口口 |②---|
口③口口 |③---|
④口口口 |④---|
30
口口①① |①---|
口口口口 |----|
口口口口 |②---|
口口②② |----|
31
口③口口 |①---|
口①②口 |②---|
口②①口 |③---|
口口③口 |----|
32
口口口口 |①---|
①②③④ |②---|
④③②① |③---|
口口口口 |④---|
33
①口口① |①---|
口口④口 |----|
口③口口 |--②-|
口口②口 |③-④-|
34
①①②② |①---|
口口口口 |②---|
口③③口 |③---|
④口口④ |④---|
35
①①②② |①---|
口口口口 |----|
口口口口 |②---|
口口口口 |----|
36
口口口口 |①---|
①口口① |----|
口口口口 |----|
口口口口 |----|
37
口②口口 |----|
口口口③ |①---|
①口口口 |②---|
口口口口 |③---|
38
口④口口 |①---|
⑤口③⑤ |②-③-|
口②口口 |④---|
口口①口 |⑤---|
39
③③④④ |①---|
口口口口 |②---|
口口口口 |③---|
①①②② |④---|
40
口口口口 |①---|
口②②口 |----|
口口口口 |②---|
口①①口 |----|
41
①③⑥⑧ |①-②③|
⑪口口⑩ |-④⑤-|
⑨口口口 |⑥⑦-⑧|
⑦⑤④② |⑨-⑩⑪|
42
②④口口 |-①②-|
口口口口 |③④-⑤|
口口口①
口口⑤③

⑧口⑦⑧
口口口口
口⑥口口 |⑥--⑦|
口口口口 |--⑧-|
43
口口口口 |--①-|
口口②① |②-③-|
口③口口
口口口口

口④④口
⑥口口⑥
口口口口 |④--⑤|
口⑤⑤口 |--⑥-|
44
⑤口口⑤ |①-②-|
口②①口 |③-④-|
口④③口 |⑤---|
口口口口 |----|
45
⑤③口口 |①-②③|
⑦①口⑩ |-④⑤-|
⑨口②⑧ |⑥⑦-⑧|
⑪口④⑥ |⑨-⑩⑪|
46
口口③① |-①②-|
口口⑤口 |③④-⑤|
口④口口
口②口口

⑧⑥口⑧
口口口口
口口口口 |⑥--⑦|
口口⑦口 |--⑧-|
47
口口口口 |--①-|
①②口口 |②-③-|
口口③口
口口口口

口④④口
⑥口口⑥
口口口口 |④--⑤|
口⑤⑤口 |--⑥-|
48
口口口口 |①-②-|
口①②口 |③---|
口③口口 |④---|
⑤⑤④④ |⑤---|
49
①口口① |①---|
口③口口 |--②-|
口④②口 |③---|
口口口口 |--④-|
50
②口口口 |①-②-|
④口①③ |③-④-|
⑥口口⑤ |⑤-⑥-|
⑧口口⑦ |⑦-⑧-|
51
口口口口 |--①-|
口口②① |②-③-|
口③口口
口口口口

口④④口
⑥口口⑥
口口口口 |④--⑤|
口⑤⑤口 |--⑥-|
52
口口口口 |①-②-|
口②①口 |③---|
口口③口 |④---|
⑤⑤④④ |⑤---|
53
①口口① |①---|
口③口口 |--②-|
口④②口 |③---|
口口口口 |--④-|
54
②口口口 |①-②-|
④口①③ |③-④-|
口口口口
口口口口

⑦口口⑦
口口口口
口口口口 |⑤--⑥|
⑥⑥⑤⑤ |--⑦-|
55
口口口口 |--①-|
①②口口 |②-③-|
口口③口
口口口口

口④④口
⑥口口⑥
口口口口 |④--⑤|
口⑤⑤口 |--⑥-|
56
①口口① |①---|
口③③口 |②---|
口口口口 |③---|
②口口② |----|
57
②②口⑦ |①-②-|
④④口⑤ |③-④-|
⑥⑥口③ |⑤-⑥-|
⑧⑧口① |⑦-⑧-|
58
②②⑦口 |①-②-|
④④⑤口 |③-④-|
⑥⑥③口 |⑤-⑥-|
⑧⑧①口 |⑦-⑧-|
59
②②口⑦ |①-②-|
④④口⑤ |③-④-|
⑥⑥口③ |⑤-⑥-|
⑧⑧口① |⑦-⑧-|
60
口口②② |①---|
口口口口 |----|
口口①口 |----|
②②①口 |②---|

不確定度: 0

最終更新:2014年08月01日 22:55