マジLOVE2000%
ST☆RISH

BASIC

Level: 3
BPM: 141
Notes: 192

1
口口口口 |----|
口口口口 |----|
口口口口 |----|
口口口口 |----|
2
口口口口 |----|
口口口口 |----|
口口口口 |----|
口①口口 |①---|
3
口口口口 |①---|
口③口口 |----|
口②口口 |②---|
口口①口 |③---|
4
口①②口 |①---|
口口③口 |----|
口口口口 |②---|
口口口口 |③---|
5
口口口口 |①---|
口口口口 |----|
③口①口 |②---|
②口口口 |③---|
6
口②口口 |①---|
①口口口 |----|
口口口口 |②---|
口口口口 |----|
7
口口①口 |①---|
口口口口 |----|
口口②口 |②---|
口口口口 |----|
8
口①口口 |①---|
口口口口 |----|
口②口口 |②---|
口口口口 |----|
9
口口口口 |①---|
口①①口 |----|
口口口口 |----|
口口口口 |----|
10
①口口① |----|
口口口口 |----|
口口口口 |①---|
口口口口 |----|
11
口口口口 |①---|
口①①口 |----|
口口口口 |----|
口口口口 |----|
12
口口口口 |①---|
口口口口 |----|
②口口② |②---|
①口口① |----|
13
②口口② |①---|
①口口① |----|
口口口口 |②---|
口口口口 |----|
14
口口口口 |①---|
①①口口 |----|
口口口口 |----|
口口口口 |----|
15
口口口口 |①---|
口口口口 |----|
口口口口 |----|
口口①① |----|
16
口口口口 |①---|
口口口口 |----|
口口口口 |----|
①①口口 |----|
17
口口口口 |①---|
口口①① |----|
口口口口 |----|
口口口口 |----|
18
①①口口 |①---|
口口口口 |----|
口口口口 |----|
口口口口 |----|
19
口口口口 |①---|
口口口口 |----|
口口①① |----|
口口口口 |----|
20
口口口口 |①---|
口口口口 |----|
①①口口 |----|
口口口口 |----|
21
口④④口 |①---|
口③③口 |②---|
口②②口 |③---|
口①①口 |④---|
22
①②③口 |----|
口口口口 |①---|
口口口口 |②---|
口口口口 |③---|
23
口口口口 |----|
口②口① |①---|
口口口口 |----|
口口口口 |②---|
24
口口口口 |----|
口口口口 |①---|
①①②② |----|
口口口口 |②---|
25
口口口口 |----|
②口口② |①---|
口口口口 |--②-|
口①①口 |----|
26
口口口口 |----|
口口口口 |①---|
口③②① |②---|
口口口口 |③---|
27
口口口口 |----|
①②③口 |①---|
口口口口 |②---|
口口口口 |③---|
28
口①①口 |--①-|
口口口口 |----|
口②②口 |②---|
口口口口 |----|
29
口④④口 |①---|
③口口③ |②---|
②口口② |③---|
①口口① |④---|
30
口口口口 |----|
口①②③ |①---|
口口口口 |②---|
口口口口 |③---|
31
口口口口 |①---|
口口口口 |②---|
④③②① |③---|
口口口口 |④---|
32
口口口口 |----|
①①②② |①---|
口口口口 |----|
口口口口 |②---|
33
③口口③ |①---|
口口口口 |②---|
口②②口 |③---|
口①①口 |----|
34
口口口口 |①---|
①①口口 |----|
②②口口 |②---|
口口口口 |----|
35
口口口口 |①---|
口口①① |----|
口口②② |②---|
口口口口 |----|
36
口口口口 |①---|
口口口口 |②---|
口③④口 |③---|
口①②口 |④---|
37
口③④口 |①---|
口①②口 |②---|
口口口口 |③---|
口口口口 |④---|
38
④口口④ |①---|
③口口③ |②---|
②口口② |③---|
①口口① |④---|
39
口④④口 |①---|
口③③口 |②---|
口②②口 |③---|
口①①口 |④---|
40
①口口① |①---|
口②口口 |----|
口②口口 |②---|
口口口口 |----|
41
口②②口 |①---|
口口①口 |----|
口口①口 |②---|
口③口口 |③---|
42
口口口口 |①---|
口③口口 |----|
口②口口 |②---|
口口①口 |③---|
43
口①②口 |①---|
口口③口 |----|
口口口口 |②---|
口口口口 |③---|
44
口口口口 |①---|
口口口口 |----|
③口①口 |②---|
②口口口 |③---|
45
口②口口 |①---|
①口口口 |----|
口口口口 |②---|
口口口口 |----|
46
口口①口 |①---|
口口口口 |----|
口口②口 |②---|
口口口口 |----|
47
口①口口 |①---|
口口口口 |----|
口②口口 |②---|
口口口口 |----|
48
口口口口 |①---|
口①①口 |----|
口口口口 |----|
口口口口 |----|
49
①口口① |----|
口口口口 |----|
口口口口 |①---|
口口口口 |----|
50
口口口口 |①---|
口①①口 |----|
口口口口 |----|
口口口口 |----|
51
①口口① |①---|
②口口② |--②-|
③口口③ |----|
口口口口 |③---|
52
口口口口 |①---|
口①①口 |--②-|
口②②口 |----|
口③③口 |③---|
53
口③④口 |①---|
①口口① |----|
口②②口 |②---|
口口口口 |③-④-|
54
口口口口 |----|
③③③③ |①-②-|
①①②② |----|
④④④④ |③-④-|

不確定度: 0

最終更新:2014年08月01日 22:54