マジLOVE2000%
ST☆RISH

ADVANCED

Level: 7
BPM: 141
Notes: 413

1
口口口口 |----|
口口口口 |----|
口口口口 |----|
口口口口 |----|
2
④口口④ |----|
①口口① |----|
口②③口 |--①-|
口口口口 |②③-④|
3
④口①⑤ |----|
④口口⑤ |①-②-|
口②口口 |③--④|
口口③口 |--⑤-|
4
口①②口 |--①-|
口③口⑥ |②-③④|
口口④口 |⑤--⑥|
⑦⑤口口 |--⑦-|
5
⑤⑤⑥⑥ |----|
①①④口 |①-②③|
口③口口 |④--⑤|
口口②口 |--⑥-|
6
⑥⑥口口 |--①-|
口①⑤⑤ |②---|
④④②口 |③-④-|
口口③③ |⑤-⑥-|
7
口口①口 |--①-|
口①口口 |②---|
口口②口
口②口口

口口口口
③口口③
口口口口 |③---|
口④④口 |--④-|
8
口⑤④口 |--①-|
⑥①②③ |②---|
口①②口 |③-④-|
口口口口 |⑤-⑥-|
9
口口口口 |----|
口③③口 |①---|
口②②口 |②---|
口①①口 |③---|
10
③①①② |①---|
③口口② |----|
口口口口 |②--③|
口④④口 |--④-|
11
口②①口 |--①-|
口①②口 |②---|
口口口口 |----|
口口口口 |----|
12
口口口口 |①---|
②②口口 |----|
②②①① |②---|
口①①① |----|
13
②②①① |①---|
口⑥③① |②---|
口口⑤口 |③-④-|
口④口口 |⑤-⑥-|
14
口口①① |①---|
口口②口 |----|
口③口口 |--②-|
口口④口 |③-④-|
15
口口口口 |①---|
口口口④ |----|
③口口口 |--②-|
①①口② |③-④-|
16
①口口口 |①---|
①口口口 |----|
口口口口
口口口口

②口口口
口口口③
④口口口 |--②-|
口口口口 |③-④-|
17
口口④口 |①---|
③口口口 |----|
口口口① |--②-|
口口②① |③-④-|
18
①④口口 |①---|
口①口③ |----|
口口口口 |--②-|
口②口口 |③-④-|
19
口口口① |①---|
口②①口 |----|
口口③口 |--②-|
口④口口 |③-④-|
20
④口口④ |①---|
③口口③ |②---|
②口口② |③---|
①口口① |④---|
21
⑦⑦口口 |①-②-|
⑤⑤⑥⑥ |③-④-|
③③④④ |⑤-⑥-|
①①②② |⑦---|
22
口⑦④口 |--①-|
口③⑥口 |②-③-|
口⑤②口 |④-⑤-|
口①口口 |⑥-⑦-|
23
口口口口 |--①-|
②③③① |②---|
口④④口 |③--④|
口⑤⑤口 |--⑤-|
24
口①②口 |--①-|
⑤口口⑤ |②---|
④口口④ |③--④|
③口口③ |--⑤-|
25
口①②口 |--①-|
口③③口 |②---|
口③③口 |--③-|
口口口口 |----|
26
口⑦口④ |--①-|
③口⑥口 |②-③-|
口⑤口② |④-⑤-|
口①口口 |⑥-⑦-|
27
①③③① |--①-|
④口口④ |--②-|
⑤口口⑤ |③--④|
口②②口 |--⑤-|
28
①口口① |--①-|
口③②口 |--②-|
④口口④ |③--④|
⑤口口⑤ |--⑤-|
29
③口口④ |①-②-|
③口口④ |③-④-|
口①②口
口①②口

口⑤⑤口
口⑤⑤口
口⑥⑥口 |⑤---|
口⑥⑥口 |⑥---|
30
⑤口口⑥ |--①-|
口③④口 |②-③④|
口口口② |--⑤-|
①⑦口口 |⑥-⑦-|
31
口口口口 |--①-|
③口①③ |②---|
④②口④ |③--④|
⑤口口⑤ |--⑤-|
32
口③⑥口 |--①-|
口⑤②口 |②-③-|
口①④口 |④-⑤-|
口口口口 |⑥---|
33
②④④① |①---|
③③③③ |②---|
①口口② |③---|
口口口口 |--④-|
34
⑥口口⑤ |--①-|
④⑦⑦① |②③-④|
口②③口 |--⑤-|
口口口口 |⑥-⑦-|
35
⑥口口⑤ |--①-|
口口口口 |②③-④|
④口口① |--⑤-|
口②③口 |⑥---|
36
④口口④ |①---|
③口口③ |②---|
②口口② |③---|
①口口① |④---|
37
口⑥⑦口 |①-②-|
口⑤口口 |③-④-|
口③④口 |⑤-⑥⑦|
口①②口 |----|
38
④口口④ |①---|
③口口③ |②---|
②口口② |③---|
①口口① |④---|
39
⑤口口④ |①---|
⑤口③④ |②---|
口②②口 |③--④|
①①①口 |--⑤-|
40
口口口口 |----|
②口口① |----|
口口③口 |①--②|
口口口口 |--③-|
41
⑦口口⑦ |①--②|
④③③④ |--③-|
②⑤⑥② |--④-|
口①①口 |⑤⑥-⑦|
42
④口①⑤ |----|
④口口⑤ |①-②-|
口②口口 |③--④|
口口③口 |--⑤-|
43
口①②口 |--①-|
口③口⑥ |②-③④|
口口④口 |⑤--⑥|
⑦⑤口口 |--⑦-|
44
⑤⑤⑥⑥ |----|
①①④口 |①-②③|
口③口口 |④--⑤|
口口②口 |--⑥-|
45
⑥⑥口口 |--①-|
口①⑤⑤ |②---|
④④②口 |③-④-|
口口③③ |⑤-⑥-|
46
口口①口 |--①-|
口①口口 |②---|
口口②口
口②口口

口口口口
③口口③
口口口口 |③---|
口④④口 |--④-|
47
口口口③ |--①-|
④①②口 |②---|
口①②⑤ |③-④-|
⑥口口口 |⑤-⑥-|
48
口口口口 |----|
口③③口 |①---|
口②②口 |②---|
口①①口 |③---|
49
③①①② |①---|
③口口② |----|
口口口口 |②--③|
口④④口 |--④-|
50
口②①口 |--①-|
口①②口 |②---|
口口口口 |----|
口口口口 |----|
51
口①②口 |①②-③|
口③④口 |④-⑤⑥|
⑨⑤⑥⑨ |-⑦⑧-|
口⑦⑧口 |⑨---|
52
口①②口 |①②-③|
口③④⑩ |④-⑤⑥|
⑨⑤⑥口 |-⑦⑧-|
口⑦⑧口 |⑨-⑩-|
53
①①口口 |①---|
口③③口 |----|
口④④口 |②---|
口②②口 |③-④-|
54
③③③③ |----|
①口口① |①-②-|
②口口② |----|
④④④④ |③-④-|

不確定度: 0

最終更新:2014年08月01日 22:54