Lifetime Journey
J.Speaks

BASIC

Level: 2
BPM: 123
Notes: 128

1
口口口口 |----|
口口口口 |----|
口口口口 |----|
口口口口 |----|
2
口口口口 |①---|
口口口口 |----|
口①口口 |----|
口口口口 |----|
3
口口口口 |①---|
口口口口 |----|
口口①口 |----|
口口口口 |----|
4
口口口口 |①---|
口①口口 |----|
口口口口 |----|
口口口口 |----|
5
口口口口 |①---|
口口①口 |----|
口口口口 |----|
口口口口 |----|
6
口口口口 |①---|
口①口口 |----|
口口口口 |----|
口口口口 |----|
7
口①口口 |①---|
口口口口 |----|
口口口口 |----|
口口口口 |----|
8
口口口口 |①---|
口口①口 |----|
口口口口 |----|
口口口口 |----|
9
口口①口 |①---|
口口口口 |----|
口口口口 |----|
口口口口 |----|
10
口口口口 |①---|
口①口口 |----|
口口口口 |----|
口口口口 |----|
11
①口口口 |①---|
口口口口 |----|
口口口口 |----|
口口口口 |----|
12
口口口口 |①---|
口口①口 |----|
口口口口 |----|
口口口口 |----|
13
口口口① |①---|
口口口口 |----|
口口口口 |----|
口口口口 |----|
14
口②口口 |①---|
口③口口 |----|
口①口口 |②---|
口口口口 |③---|
15
口口②口 |①---|
口口③口 |----|
口口①口 |②---|
口口口口 |③---|
16
②口口口 |①---|
③口口口 |----|
①口口口 |②---|
口口口口 |③---|
17
口口口② |①---|
口口口③ |----|
口口口① |②---|
口口口口 |③---|
18
口口①口 |①---|
口②口口 |----|
口口口口 |②---|
口口口口 |----|
19
口口口口 |①---|
口口口口 |----|
口①①口 |----|
口口口口 |----|
20
口口口口 |①---|
口口②口 |----|
口①口口 |②---|
口口口口 |----|
21
口①①口 |①---|
口口口口 |----|
口口口口 |----|
口口口口 |----|
22
口口口口 |①---|
口口口口 |----|
口①口口 |----|
口口口口 |----|
23
口口口口 |①---|
口口口口 |----|
口口①口 |----|
口口口口 |----|
24
口口口口 |①---|
口①口口 |----|
口口口口 |----|
口口口口 |----|
25
口口口口 |①---|
口口①口 |----|
口口口口 |----|
口口口口 |----|
26
①口②③ |①---|
口口口口 |----|
口口口口 |②---|
口口口口 |③---|
27
口口口口 |①---|
①口②③ |----|
口口口口 |②---|
口口口口 |③---|
28
口口口口 |①---|
口口口口 |----|
①口②③ |②---|
口口口口 |③---|
29
口口口口 |①---|
口口口口 |----|
口口口口 |②---|
①口②③ |③---|
30
③②口① |①---|
口口口口 |----|
口口口口 |②---|
口口口口 |③---|
31
口口口口 |①---|
③②口① |----|
口口口口 |②---|
口口口口 |③---|
32
口口口口 |①---|
口口口口 |----|
③②口① |②---|
口口口口 |③---|
33
口口口口 |①---|
口口口口 |----|
口口口口 |②---|
③②口① |③---|
34
②口口口 |①---|
口口口口 |----|
①口口口 |②---|
口口口口 |----|
35
口②口口 |①---|
口口口口 |----|
口①口口 |②---|
口口口口 |----|
36
口口②口 |①---|
口口口口 |----|
口口①口 |②---|
口口口口 |----|
37
口口口② |①---|
口口口口 |----|
口口口① |②---|
口口口口 |----|
38
口口口口 |①---|
口②①口 |----|
口口口口 |②---|
口口口口 |----|
39
口口口口 |①---|
口口口口 |----|
口①②口 |②---|
口口口口 |----|
40
口口口口 |①---|
口②①口 |----|
口口口口 |②---|
口口口口 |----|
41
口口口口 |①---|
口口口口 |----|
口①②口 |②---|
口口口口 |----|
42
④③②① |①---|
口口口口 |②---|
口口口口 |③---|
口口口口 |④---|
43
口口口口 |①---|
①口口口 |②---|
②口口口 |③---|
③④口口 |④---|
44
口口口口 |①---|
口口口④ |②---|
口口口③ |③---|
口口①② |④---|
45
口口口口 |①---|
口②①口 |②---|
口③④口 |③---|
口口口口 |④---|
46
口口④③ |①---|
口口口② |②---|
口口口① |③---|
口口口口 |④---|
47
②①口口 |①---|
③口口口 |②---|
④口口口 |③---|
口口口口 |④---|
48
口口口口 |①---|
口口口口 |②---|
口口口口 |③---|
①②③④ |④---|
49
口口口口 |①---|
口④③② |②---|
口口口① |③---|
口口口口 |④---|
50
口②口口 |①---|
口③口口 |----|
口①口口 |②---|
口口口口 |③---|
51
口口②口 |①---|
口口③口 |----|
口口①口 |②---|
口口口口 |③---|
52
②口口口 |①---|
③口口口 |----|
①口口口 |②---|
口口口口 |③---|
53
口口口② |①---|
口口口③ |----|
口口口① |②---|
口口口口 |③---|
54
口口①口 |①---|
口②口口 |----|
口口口口 |②---|
口口口口 |----|
55
口口口口 |①---|
口口口口 |----|
口①①口 |----|
口口口口 |----|
56
口口口口 |①---|
口口②口 |----|
口①口口 |②---|
口口口口 |----|
57
口①①口 |①---|
口口口口 |----|
口口口口 |----|
口口口口 |----|

不確定度: 0

最終更新:2014年08月01日 22:52