Lifetime Journey
J.Speaks

ADVANCED

Level: 6
BPM: 123
Notes: 451

1
口口口口 |----|
口口口口 |----|
口口口口 |----|
口口口口 |----|
2
⑧口⑦口 |①-②-|
⑥口⑤口 |③-④-|
④口③口 |⑤-⑥-|
②口①口 |⑦-⑧-|
3
口②口① |①-②-|
口④口③ |③-④-|
口⑥口⑤ |⑤-⑥-|
口⑧口⑦ |⑦-⑧-|
4
⑧口⑦口 |①-②-|
⑥口⑤口 |③-④-|
④口③口 |⑤-⑥-|
②口①口 |⑦-⑧-|
5
口②口① |①-②-|
口④口③ |③-④-|
口⑥口⑤ |⑤-⑥-|
口⑧口⑦ |⑦-⑧-|
6
口口④口 |①---|
口③口口 |----|
口口②口 |--②-|
口口①口 |③-④-|
7
口口口口 |----|
口口③口 |----|
口②口口 |--①-|
口口①口 |②-③-|
8
口①①口 |--①-|
②口口② |--②-|
口口⑤口 |--③-|
口④③口 |④-⑤-|
9
口⑤④口 |①-②-|
⑥③②⑥ |③-④-|
口①口口 |⑤---|
口口口口 |⑥---|
10
口④口口 |①---|
口口③口 |----|
口②口口 |--②-|
口①口口 |③-④-|
11
口口口口 |----|
②口口① |①-②-|
口口口口
口口口口

口口口口
口口口⑤
口口口④ |--③-|
口口口③ |④-⑤-|
12
口口口口 |--①-|
口①①口 |--②-|
②口⑤② |--③-|
口④③口 |④-⑤-|
13
口⑤④口 |①-②-|
⑥③②⑥ |③-④-|
口①口口 |⑤---|
口口口口 |⑥---|
14
②④④② |①-②-|
口③③口 |③---|
①口口① |④---|
口⑤⑤⑥ |⑤-⑥-|
15
③口口④ |①-②-|
⑤口口② |③-④-|
①口⑧⑥ |⑤-⑥-|
口⑦⑦口 |⑦-⑧-|
16
口口口口 |①-②-|
⑤③②④ |③-④-|
⑦①⑧⑥ |⑤-⑥-|
口口口口 |⑦-⑧-|
17
口③②口 |①---|
口⑤④口 |②-③-|
口①⑥口 |④-⑤-|
口口口口 |⑥---|
18
④②④② |①-②-|
⑤口口⑤ |--③-|
③①③① |④---|
口口口口 |⑤---|
19
口①口口 |----|
口口②口 |①-②-|
口③口口 |③---|
口④④口 |④---|
20
②④②④ |①-②-|
⑤口口⑤ |--③-|
①③①③ |④---|
口口口口 |⑤---|
21
⑤④口⑤ |--①-|
口口口③ |②-③-|
口②口口 |④---|
口口口① |⑤---|
22
⑧口⑦口 |①-②-|
⑥口⑤口 |③-④-|
④口③口 |⑤-⑥-|
②口①口 |⑦-⑧-|
23
口②口① |①-②-|
口④口③ |③-④-|
口⑥口⑤ |⑤-⑥-|
口⑧口⑦ |⑦-⑧-|
24
⑧口⑦口 |①-②-|
⑥口⑤口 |③-④-|
④口③口 |⑤-⑥-|
②口①口 |⑦-⑧-|
25
口②口① |①-②-|
口④口③ |③-④-|
口⑥口⑤ |⑤-⑥-|
口⑧口⑦ |⑦-⑧-|
26
口⑦⑦⑥ |--①-|
口口⑤④ |②-③-|
口口③② |④-⑤-|
口口①口 |⑥-⑦-|
27
口⑥⑥口 |--①-|
④⑤口口 |②-③-|
②③口口 |④-⑤-|
口①口口 |⑥---|
28
②口口① |--①-|
④口口③ |②-③-|
⑥口口⑤ |④-⑤-|
口口口⑦ |⑥-⑦-|
29
⑦口口⑦ |--①-|
口⑥⑤口 |②-③-|
口④③口 |④-⑤-|
口②①口 |⑥-⑦-|
30
口⑦⑦⑥ |--①-|
口口⑤④ |②-③-|
口口③② |④-⑤-|
口口①口 |⑥-⑦-|
31
口④④口 |--①-|
口⑤⑤口 |②-③-|
②③口口 |④---|
口①口口 |⑤---|
32
口③②口 |--①-|
口⑤④口 |②-③-|
⑦口⑥⑦ |④-⑤-|
口口①口 |⑥-⑦-|
33
①②②① |①---|
口③③口 |--②-|
④口口④ |--③-|
口口口口 |--④-|
34
口口⑦口 |--①-|
口口⑤⑥ |②-③-|
口口③④ |④-⑤-|
口口①② |⑥-⑦-|
35
口⑦口口 |--①-|
⑥⑤口口 |②-③-|
④③口口 |④-⑤-|
②①口口 |⑥-⑦-|
36
口口口口 |--①-|
口③③口 |②-③-|
口②②口
口①①口

④⑥⑥④
口口口口
口口口口 |--④-|
口⑤⑤口 |⑤-⑥-|
37
口⑥⑤口 |--①-|
⑦④③⑦ |②-③-|
口②①口 |④-⑤-|
口口口口 |⑥-⑦-|
38
口口⑦口 |--①-|
口⑥⑤口 |②-③-|
口④③口 |④-⑤-|
口②①口 |⑥-⑦-|
39
③口口③ |①---|
①口⑥① |②-③-|
口⑤口口 |--④-|
②口④② |⑤-⑥-|
40
口口口口 |--①-|
口①⑥口 |②-③-|
口⑤②口 |④-⑤-|
口③④口 |⑥---|
41
④口口⑤ |①-②-|
口口口③ |③-④-|
②⑥⑥口 |⑤---|
口口口① |⑥---|
42
②口③② |①---|
口④口口 |②---|
口口⑤口 |③-④-|
①⑥口① |⑤-⑥-|
43
③口口③ |--①-|
②口口② |②-③-|
①口口①
口口口口

口口口口
口口口口
口口⑥⑥ |--④-|
⑤⑤④④ |⑤-⑥-|
44
⑤⑤④④ |①-②-|
③③②② |③-④-|
①①⑧⑧ |⑤-⑥-|
⑦⑦⑥⑥ |⑦-⑧-|
45
③③②② |①-②-|
⑤⑤④④ |③-④-|
①①口口 |⑤---|
⑥口口⑥ |--⑥-|
46
①③③① |①---|
口口⑥⑥ |②-③-|
⑤⑤④④ |--④-|
口②②口 |⑤-⑥-|
47
③③②② |①-②-|
①①口口 |③-④-|
口口④④
口口口口

口口口口
口⑥⑥口
⑤⑤口口 |⑤---|
⑦口口⑦ |⑥-⑦-|
48
①③③① |①---|
口④④口 |②-③-|
口口口口 |--④-|
口②②⑤ |--⑤-|
49
口⑤⑤口 |①-②-|
口口口④ |③-④-|
③口口② |⑤---|
①口口口 |----|
50
②④④② |①-②-|
口③③口 |③---|
①口口① |④---|
口⑤⑤⑥ |⑤-⑥-|
51
③口口④ |①-②-|
⑤口口② |③-④-|
①口⑧⑥ |⑤-⑥-|
口⑦⑦口 |⑦-⑧-|
52
口口口口 |①-②-|
⑤③②④ |③-④-|
⑦①⑧⑥ |⑤-⑥-|
口口口口 |⑦-⑧-|
53
口③②口 |①---|
口⑤④口 |②-③-|
口①⑥口 |④-⑤-|
口口口口 |⑥---|
54
④②④② |①-②-|
⑤口口⑤ |--③-|
③①③① |④---|
口口口口 |⑤---|
55
口①口口 |----|
口口②口 |①-②-|
口③口口 |③---|
口④④口 |④---|
56
②④②④ |①-②-|
⑤口口⑤ |--③-|
①③①③ |④---|
口口口口 |⑤---|
57
⑤④口⑤ |--①-|
口口口③ |②-③-|
口②口口 |④---|
口口口① |⑤---|

不確定度: 0

最終更新:2014年08月01日 22:52