インベーダーインベーダー
きゃりーぱみゅぱみゅ

BASIC

Level: 3
BPM: 160
Notes: 163

1
口口口口 |----|
口口口口 |----|
口口口口 |----|
口口口口 |----|
2
口口口口 |----|
口口口口 |----|
口口口口 |----|
口口口口 |----|
3
口口口口 |----|
口口口口 |----|
口口口口 |----|
口口口口 |----|
4
①口口① |①---|
口口口口 |----|
口口口口 |----|
口口口口 |----|
5
口口口口 |①---|
口口口口 |----|
口口口口 |----|
①口口① |----|
6
①口口① |①---|
口口口口 |----|
口口口口 |----|
口口口口 |----|
7
口口口口 |①---|
口①①口 |----|
口②②口 |②---|
口口口口 |----|
8
口口口口 |①---|
口口口口 |----|
口②口口 |②---|
口①①口 |----|
9
口口口口 |①---|
口口②口 |----|
口口①口 |②---|
口口口口 |----|
10
口②口口 |①---|
口①口口 |----|
口口口口 |②---|
口口口口 |----|
11
口口①口 |①---|
口口②口 |----|
口口口口 |②---|
口口口口 |----|
12
口口口口 |①---|
口口口口 |----|
口①②口 |②---|
口口口口 |----|
13
口口口口 |①---|
口口口口 |----|
口①②口 |②---|
口口口口 |----|
14
口口口口 |①---|
口口口口 |----|
口①②口 |②---|
口口口口 |----|
15
口口口口 |①---|
口口口口 |----|
口②②口 |②---|
口①①口 |----|
16
口口口口 |①---|
①口②口 |----|
口口口口 |②---|
口口口口 |----|
17
口口口口 |①---|
口②口① |----|
口口口口 |②---|
口口口口 |----|
18
口口口口 |①---|
①口②口 |----|
口口口口 |②---|
口口口口 |----|
19
②口口② |①---|
①口口① |----|
口口口口 |②---|
口口口口 |----|
20
口①口口 |①---|
口口口口 |----|
口②口口 |②---|
口口口口 |----|
21
口口①口 |①---|
口口口口 |----|
口口②口 |②---|
口口口口 |----|
22
口①口口 |①---|
口口口口 |----|
口②口口 |②---|
口口口口 |----|
23
口口①口 |①---|
口口口口 |----|
口口②口 |②---|
口口口口 |----|
24
口口口口 |①---|
①口②口 |----|
口口口口 |②---|
口口口口 |----|
25
口口口口 |①---|
口②口① |----|
口口口口 |②---|
口口口口 |----|
26
口口口口 |①---|
①口②口 |----|
口口口口 |②---|
口口口口 |----|
27
②口口② |①---|
①口口① |----|
口口口口 |②---|
口口口口 |----|
28
口①口口 |①---|
口口口口 |----|
口②口口 |②---|
口口口口 |----|
29
口口①口 |①---|
口口口口 |----|
口口②口 |②---|
口口口口 |----|
30
口①口口 |①---|
口口口口 |----|
口②口口 |②---|
口口口口 |----|
31
口口①口 |①---|
口口口口 |----|
口口②口 |②---|
口口口口 |----|
32
口口口口 |①---|
口①①口 |----|
口口口口 |----|
口口口口 |----|
33
口口口口 |----|
口口口口 |----|
口口口口 |----|
口口口口 |----|
34
口口口口 |①---|
口①口口 |----|
口口①口 |----|
口口口口 |----|
35
口口口口 |①---|
口口①口 |----|
口①口口 |----|
口口口口 |----|
36
口口口口 |①---|
口口口口 |----|
口①口口 |----|
口口①口 |----|
37
口口口口 |①---|
口口口口 |----|
口口①口 |----|
口①口口 |----|
38
口口口口 |①---|
①口口① |----|
口口口口 |----|
口口口口 |----|
39
口口口口 |①---|
口①①口 |----|
口口口口 |----|
口口口口 |----|
40
口口口口 |①---|
口口口口 |----|
口①①口 |----|
口口口口 |----|
41
口口口口 |①---|
口口口口 |----|
①口口① |----|
口口口口 |----|
42
口口口口 |①---|
口口口口 |----|
口①口口 |----|
口口口口 |----|
43
口口口口 |①---|
①①口口 |----|
口口口口 |----|
口口口口 |----|
44
口口口口 |①---|
口口口口 |----|
口口①口 |----|
口口口口 |----|
45
口口口口 |①---|
口口①① |----|
口口口口 |----|
口口口口 |----|
46
口口口口 |①---|
口口口口 |----|
口①①口 |----|
口口口口 |----|
47
口口口口 |①---|
①口口① |----|
口口口口 |----|
口口口口 |----|
48
口口口口 |①---|
口口口口 |----|
②口口② |②---|
①口口① |----|
49
口口口口 |①---|
口③④口 |②---|
口①②口 |③---|
口口口口 |④---|
50
①②③④ |①---|
口口口口 |②---|
口口口口 |③---|
口口口口 |④---|
51
口口口口 |①---|
口①①口 |②---|
口②②口 |③---|
口③③口 |----|
52
口口口口 |①---|
口①口口 |----|
口②口口 |②---|
口口口口 |----|
53
口口口口 |①---|
口口①口 |----|
口口②口 |②---|
口口口口 |----|
54
①②口③ |①---|
口④④口 |②---|
口口口口 |③---|
口口口口 |--④-|
55
口口口口 |----|
口口口口 |①---|
①口口① |②---|
口②②口 |----|
56
口口口口 |①---|
①②口口 |----|
口口口口 |②---|
口口口口 |----|
57
口口口口 |①---|
口口②① |----|
口口口口 |②---|
口口口口 |----|
58
①②③④ |①---|
口口口口 |②---|
口口口口 |③---|
口口口口 |④---|
59
口口口口 |①---|
口①①口 |②---|
口②②口 |③---|
口③③口 |----|
60
口口口口 |①---|
口①口口 |----|
口②口口 |②---|
口口口口 |----|
61
口口口口 |①---|
口口①口 |----|
口口②口 |②---|
口口口口 |----|
62
①②口③ |①---|
口④④口 |②---|
口口口口 |③---|
口口口口 |--④-|
63
口口口口 |----|
口口口口 |①---|
①口口① |②---|
口②②口 |----|
64
①口口① |①---|
口口口口 |----|
口口口口 |----|
口口口口 |----|
65
口口口口 |①---|
口口口口 |----|
口口口口 |----|
①口口① |----|
66
①口口① |①---|
口口口口 |----|
口口口口 |----|
口口口口 |----|
67
口口口口 |①---|
口①①口 |----|
口②②口 |②---|
口口口口 |----|
68
口口口口 |①---|
口口口口 |----|
口口口口 |----|
口①①口 |----|

不確定度: 0

最終更新:2014年08月01日 22:43