小野秀幸

BASIC

Level: 5
BPM: 178
Notes: 269

1
口口口口 |----|
口口口口 |----|
口口口口 |----|
口口口口 |----|
2
口口口口 |----|
①口口口 |----|
口②口口 |①---|
口口口口 |②---|
3
口口口口 |①---|
口①①口 |----|
口口②② |②---|
口口口口 |----|
4
口口④③ |①---|
口口①② |②---|
口口口口 |③---|
口口口口 |④---|
5
②①口口 |①---|
③①口口 |----|
口口口口 |②---|
口口口口 |③---|
6
口口口口 |①---|
口口口② |----|
①①③口 |②---|
口口口口 |③---|
7
口口口口 |①---|
口①①口 |----|
②②口口 |②---|
口口口口 |----|
8
③④口口 |①---|
②①口口 |②---|
口口口口 |③---|
口口口口 |④---|
9
口口①② |①---|
口口①② |----|
口口口③ |②---|
口口口口 |③---|
10
口口口口 |①---|
②口口口 |----|
口③①口 |②---|
口口口口 |③---|
11
口口口口 |①---|
口①①口 |----|
口口②② |②---|
口口口口 |----|
12
口口④③ |①---|
口口①② |②---|
口口口口 |③---|
口口口口 |④---|
13
②①口口 |①---|
③①口口 |----|
口口口口 |②---|
口口口口 |③---|
14
口口口口 |①---|
口口口② |----|
①①③口 |②---|
口口口口 |③---|
15
口口口口 |①---|
口①①口 |----|
②②口口 |②---|
口口口口 |----|
16
③④口口 |①---|
②①口口 |②---|
口口口口 |③---|
口口口口 |④---|
17
②口①② |①---|
口口①口 |--②-|
口口口口 |----|
口口口口 |----|
18
口口口口 |----|
口口口① |----|
口口②口 |①---|
口口口口 |②---|
19
口口口口 |①---|
口①口口 |②---|
②口口口 |----|
口口口口 |----|
20
口口口口 |①---|
①口③口 |②---|
口②口④ |③---|
口口口口 |④---|
21
口口口口 |①---|
口口口口 |----|
口②③口 |②---|
口①①口 |③---|
22
口口口口 |①---|
口①①口 |----|
口口口口 |----|
口口口口 |----|
23
口口①口 |----|
口②口口 |----|
口口口口 |①---|
口口口口 |②---|
24
口口口口 |①---|
口口口口 |②---|
口④①口 |③---|
口②③口 |④---|
25
口口口口 |①---|
口①①口 |--②-|
②口口② |----|
口口口口 |----|
26
口口口口 |----|
口口口① |----|
口口②口 |①---|
口口口口 |②---|
27
口口口口 |①---|
口①口口 |②---|
②口口口 |----|
口口口口 |----|
28
口口口口 |①---|
①口③口 |②---|
口②口④ |③---|
口口口口 |④---|
29
口口口口 |①---|
口口口口 |----|
口②③口 |②---|
口①①口 |③---|
30
口口口口 |①---|
口①①口 |----|
口口口口 |----|
口口口口 |----|
31
口口①口 |----|
口②口口 |----|
口口口口 |①---|
口口口口 |②---|
32
口口口口 |①---|
口口口口 |②---|
口④①口 |③---|
口②③口 |④---|
33
口口口口 |①---|
③①①③ |--②-|
②口口② |----|
口口口口 |--③-|
34
口口口口 |----|
口口口口 |----|
口口口口 |----|
口口口口 |----|
35
口口①口 |----|
口口口① |----|
口口口口 |①---|
口口口口 |----|
36
口口口口 |①---|
口口①口 |----|
②①口口 |②---|
口②口口 |----|
37
口口口口 |①---|
口口口口 |----|
口②②① |②---|
口口①口 |----|
38
口口口口 |----|
口口口口 |----|
口口口口 |----|
口口口口 |----|
39
口①口口 |----|
①口口口 |----|
口口口口 |①---|
口口口口 |----|
40
口口口口 |①---|
口①口口 |----|
口口①② |②---|
口口②口 |----|
41
口口口口 |①---|
口口口口 |----|
①②②口 |②---|
口①口口 |----|
42
口口口口 |----|
口口口口 |----|
口口口口 |----|
口口口口 |----|
43
口口口① |----|
口口①口 |----|
口口口口 |①---|
口口口口 |----|
44
口口口口 |①---|
口①口口 |----|
口②①口 |②---|
②口口口 |----|
45
口口口口 |①---|
①口口口 |--②-|
口②口口 |----|
口口③口 |③---|
46
口口口口 |----|
口口口口 |----|
口口口口 |----|
口口口口 |----|
47
①口口口 |----|
口①口口 |----|
口口口口 |①---|
口口口口 |----|
48
口口口口 |①---|
口口①口 |----|
口①②口 |②---|
口口口② |----|
49
口口口口 |①---|
口口口① |--②-|
口②②口 |----|
口口口口 |----|
50
口口口口 |----|
口口口口 |----|
口口口口 |----|
口口口口 |----|
51
口口口① |①---|
口口口② |②---|
口口口口 |----|
口口口口 |----|
52
口③口口 |①---|
④②①口 |②---|
口口口口 |③---|
口口口口 |④---|
53
口口口口 |①---|
口口口口 |②---|
口①口口 |③---|
②③④口 |④---|
54
口口口口 |①---|
口口口口 |②---|
口口口① |----|
口口口② |----|
55
口口口口 |①---|
口③②① |②---|
口④口口 |③---|
口口口口 |④---|
56
口口口口 |①---|
①口口口 |②---|
②口口口 |③---|
口③④口 |④---|
57
口口口口 |①---|
口④口口 |②---|
③口②口 |③---|
口口口① |④---|
58
口②②口 |①---|
口口口① |②---|
口口口口 |----|
口口口口 |----|
59
口②口口 |①---|
口④①口 |②---|
③口口口 |③---|
口口口口 |④---|
60
口口口口 |----|
口口口口 |①---|
口①③口 |②---|
口口②口 |③---|
61
口口口口 |①---|
④口口口 |②---|
②③口口 |③---|
口①口口 |④---|
62
①口口口 |①---|
口②口口 |②---|
口口③口 |③---|
口口口④ |④---|
63
口口口口 |①---|
口口②口 |②---|
③口口① |----|
口口口口 |③---|
64
口口口② |①---|
口①③口 |②---|
口④口口 |③---|
口口口口 |④---|
65
口口④口 |①---|
口③口口 |②---|
②口口口 |③---|
①口口口 |④---|
66
口口口口 |①---|
③口口① |②---|
口④口② |③---|
口口口口 |④---|
67
口口口口 |①---|
口①①口 |----|
口口②② |②---|
口口口口 |----|
68
口口④③ |①---|
口口①② |②---|
口口口口 |③---|
口口口口 |④---|
69
②①口口 |①---|
③①口口 |----|
口口口口 |②---|
口口口口 |③---|
70
口口口口 |①---|
口口口② |----|
①①③口 |②---|
口口口口 |③---|
71
口口口口 |①---|
口①①口 |----|
②②口口 |②---|
口口口口 |----|
72
③④口口 |①---|
②①口口 |②---|
口口口口 |③---|
口口口口 |④---|
73
口口①② |①---|
口口①② |----|
口口口③ |②---|
口口口口 |③---|
74
口口口口 |①---|
②口口口 |----|
口③①口 |②---|
口口口口 |③---|
75
口口口口 |①---|
口①①口 |----|
口口②② |②---|
口口口口 |----|
76
口口④③ |①---|
口口①② |②---|
口口口口 |③---|
口口口口 |④---|
77
②①口口 |①---|
③①口口 |----|
口口口口 |②---|
口口口口 |③---|
78
口口口口 |①---|
口口口② |----|
①①③口 |②---|
口口口口 |③---|
79
口口口口 |①---|
口①①口 |----|
②②口口 |②---|
口口口口 |----|
80
③④口口 |①---|
②①口口 |②---|
口口口口 |③---|
口口口口 |④---|
81
②口①② |①---|
口口①口 |--②-|
口口口口
口口口口

口口口口
口③③口
口口口口 |----|
口口口口 |--③-|


不确定度: 0

最終更新:2012年11月08日 18:24