インベーダーインベーダー
きゃりーぱみゅぱみゅ

ADVANCED

Level: 6
BPM: 160
Notes: 350

1
口口口口 |----|
口口口口 |----|
口口口口 |----|
口口口口 |----|
2
口口口口 |----|
口口口口 |----|
口口口口 |----|
口口口口 |----|
3
口口口口 |----|
口口口口 |----|
口口口口 |----|
口口口口 |----|
4
③口口④ |--①-|
口①①口 |--②-|
口②②口 |③---|
④口口③ |④---|
5
③口口④ |--①-|
口①①口 |--②-|
口②②口 |③---|
④口口③ |④---|
6
口口口口 |--①-|
口①①口 |--②-|
口②②口
口口口口

③口口④
口⑤口口
口口口口 |③---|
④口口③ |④-⑤-|
7
口口④口 |①---|
②⑤①③ |②-③-|
口口⑥口 |--④-|
口口口口 |⑤-⑥-|
8
口④口口 |①---|
③口口口 |②---|
②口口口 |③---|
口①口口 |④---|
9
口口④口 |①---|
口口口③ |②---|
口口口② |③---|
口口①口 |④---|
10
口④口口 |①---|
③口口口 |②---|
②口口口 |③---|
口①口口 |④---|
11
口口④口 |①---|
口口口③ |②---|
口口口② |③---|
口口①口 |④---|
12
口④口口 |①---|
③口口口 |②---|
口②口口 |③---|
①口口口 |④---|
13
口口口④ |①---|
口口③口 |②---|
口口口② |③---|
口口①口 |④---|
14
口④口口 |①---|
③口口口 |②---|
口②口口 |③---|
①口口口 |④---|
15
口口口口 |①---|
口口口口 |②---|
③①①④ |③---|
口②②口 |④---|
16
①口口② |①---|
口口口口 |--②-|
口③③口 |----|
口口口口 |③---|
17
口口口口 |①---|
口③③口 |--②-|
口口口口 |----|
①口口② |③---|
18
①口口② |①---|
口口口口 |--②-|
口③③口 |----|
口口口口 |③---|
19
②口口② |①---|
口口口口 |--②-|
口口口口 |----|
①口口① |----|
20
口口口口 |①---|
口①①口 |②---|
口②②口
口口口口

口口口口
口④④口
口口口口 |③---|
③口口③ |--④-|
21
口口口口 |--①-|
口口口口 |--②-|
口①①口 |----|
②口口② |----|
22
口口口口 |①---|
口①①口 |②---|
②口口②
口口口口

口口口口
口④④口
口口口口 |③---|
口③③口 |--④-|
23
口口口口 |--①-|
口口口口 |--②-|
①口口① |----|
口②②口 |----|
24
①口口② |①---|
口口口口 |--②-|
口③③口 |----|
口口口口 |③---|
25
口口口口 |①---|
口③③口 |--②-|
口口口口 |----|
①口口② |③---|
26
①口口② |①---|
口口口口 |--②-|
口③③口 |----|
口口口口 |③---|
27
②口口② |①---|
口口口口 |--②-|
口口口口 |----|
①口口① |----|
28
口口口口 |①---|
口①①口 |②---|
口②②口
口口口口

口口口口
口④④口
口口口口 |③---|
③口口③ |--④-|
29
口口口口 |--①-|
口口口口 |--②-|
口①①口 |----|
②口口② |----|
30
口口口口 |①---|
①口口① |②---|
②口口②
口口口口

口口口口
④口口④
口口口口 |③---|
口③③口 |--④-|
31
口口口口 |--①-|
口口口口 |--②-|
①口口① |----|
口②②口 |----|
32
口口口口 |①---|
口①①口 |----|
口①①口 |----|
口口口口 |----|
33
口口口口 |----|
口口口口 |----|
口口口口 |----|
口口口口 |----|
34
口口口口 |①---|
②口②口 |----|
口口口口 |②---|
①口口口 |----|
35
口口口口 |①---|
口②口② |----|
口口口口 |②---|
口口口① |----|
36
②口②口 |①---|
口口口口 |----|
口口口口 |②---|
①口口口 |----|
37
口②口② |①---|
口口口口 |----|
口口口口 |②---|
口口口① |----|
38
口口口口 |①---|
口②口② |----|
口口口口 |②---|
①口口口 |----|
39
口口口口 |①---|
②口②口 |----|
口口口口 |②---|
口口口① |----|
40
口②口② |①---|
口口口口 |----|
口口口口 |②---|
①口口口 |----|
41
②口②口 |①---|
口口口口 |----|
口口口口 |②---|
口口口① |----|
42
口口口② |①---|
口口口口 |----|
口①①口 |②---|
②口口口 |----|
43
②口口口 |①---|
口口口口 |----|
口①①口 |②---|
口口口② |----|
44
口口口② |①---|
口①①口 |----|
口口口口 |②---|
②口口口 |----|
45
②口口口 |①---|
口①①口 |----|
口口口口 |②---|
口口口② |----|
46
口口口口 |①---|
②口口② |----|
口口口口 |②---|
口①①口 |----|
47
②口口② |①---|
口口口口 |----|
口①①口 |②---|
口口口口 |----|
48
口口口口 |①---|
口口口口 |----|
口②②口 |②---|
①①①① |----|
49
口口口口 |①---|
口口口口 |②---|
①②③④ |③---|
口口口口 |④---|
50
④②②④ |①---|
口口口口 |②---|
口口口口 |③---|
③①①③ |④---|
51
口口口口 |①---|
口①①口 |②---|
②②②② |③---|
③④④③ |④---|
52
②口口④ |①---|
口口口口 |②---|
口①③口 |③---|
口口口口 |④---|
53
口口口口 |①---|
①④④① |②---|
口②②口 |③---|
③口口③ |④---|
54
②⑤⑤② |①---|
口⑤⑤口 |②---|
①口口① |③-④-|
口③④口 |--⑤-|
55
口口口口 |----|
口口口口 |①---|
③①①③ |②---|
②②②② |③---|
56
口口口口 |①---|
②口口④ |②---|
口①③口 |③---|
口口口口 |④---|
57
③口口① |①---|
口②②口 |②-③-|
口⑤⑥口 |--④-|
①④④③ |⑤-⑥-|
58
④②②④ |①---|
口口口口 |②---|
①口口① |③---|
口③③口 |④---|
59
口口口口 |①---|
口①①口 |②---|
②②②② |③---|
③④④③ |④---|
60
②口口④ |①---|
口口口口 |②---|
口①③口 |③---|
口口口口 |④---|
61
口口口口 |①---|
①④④① |②---|
口②②口 |③---|
③口口③ |④---|
62
②⑤⑤② |①---|
口⑤⑤口 |②---|
①口口① |③-④-|
口③④口 |--⑤-|
63
③口口③ |----|
口口口口 |①---|
口①①口 |②---|
②②②② |③---|
64
③口口④ |--①-|
口①①口 |--②-|
口②②口 |③---|
④口口③ |④---|
65
③口口④ |--①-|
口①①口 |--②-|
口②②口 |③---|
④口口③ |④---|
66
口口口口 |--①-|
口①①口 |--②-|
口②②口
口口口口

③口口④
口⑤口口
口口口口 |③---|
④口口③ |④-⑤-|
67
口口④口 |①---|
②⑤①③ |②-③-|
口口⑥口 |--④-|
口口口口 |⑤-⑥-|
68
口口口口 |①---|
口口口口 |----|
口口口口 |----|
口①①口 |----|

不確定度: 0

最終更新:2014年08月01日 22:42