Hello world!
Music by 源屋, Vocal by SOPHY

BASIC

Level: 2
BPM: 175
Notes: 158

1
口口口口 |----|
口口口口 |----|
口口口口 |----|
口口口口 |----|
2
口口口口 |①---|
口口口口 |----|
口口口口 |----|
口口①口 |----|
3
口口口口 |①---|
口口口口 |----|
口口①口 |----|
口口口口 |----|
4
口口口口 |①---|
口口①口 |----|
口口口口 |----|
口口口口 |----|
5
口口①口 |①---|
口口口口 |----|
口口口口 |----|
口口口口 |----|
6
口①②口 |①---|
口口口口 |----|
口口口口 |②---|
口口口口 |----|
7
口口口口 |①---|
口①②口 |----|
口口口口 |②---|
口口口口 |----|
8
口口口口 |①---|
口口口口 |----|
口①②口 |②---|
口口口口 |----|
9
口口口口 |①---|
口口口口 |----|
口口口口 |②---|
口①②口 |----|
10
口口口口 |①---|
口口口口 |----|
口口口② |②---|
口口口① |----|
11
口口口② |①---|
口口口① |----|
口口口口 |②---|
口口口口 |----|
12
口口①口 |①---|
口口②口 |----|
口口口口 |②---|
口口口口 |----|
13
口口口口 |①---|
口口口口 |----|
口口①口 |②---|
口口②口 |----|
14
口口口口 |①---|
口口口口 |----|
口②口口 |②---|
口①口口 |----|
15
口②口口 |①---|
口①口口 |----|
口口口口 |②---|
口口口口 |----|
16
①口口口 |①---|
②口口口 |----|
口口口口 |②---|
口口口口 |----|
17
口口口口 |①---|
口口口口 |----|
①口口口 |②---|
②口口口 |----|
18
口口口口 |①---|
口口口口 |----|
口②口口 |②---|
口口①口 |----|
19
口②口口 |①---|
口口①口 |----|
口口口口 |②---|
口口口口 |----|
20
口口①口 |①---|
口②口口 |----|
口口口口 |②---|
口口口口 |----|
21
口口口口 |①---|
口口口口 |----|
口口①口 |②---|
口②口口 |----|
22
口口口口 |①---|
口口口口 |----|
口②口口 |②---|
口口①口 |----|
23
口②口口 |①---|
口口①口 |----|
口口口口 |②---|
口口口口 |----|
24
口口①口 |①---|
口②口口 |----|
口口口口 |②---|
口口口口 |----|
25
口口口口 |①---|
口口口口 |----|
口口①口 |②---|
口②口口 |----|
26
口口口口 |①---|
口口口口 |----|
口口口口 |②---|
口口①② |----|
27
口口口口 |①---|
口口口口 |----|
口口②① |②---|
口口口口 |----|
28
口口口口 |①---|
口口①② |----|
口口口口 |②---|
口口口口 |----|
29
口口②① |①---|
口口口口 |----|
口口口口 |②---|
口口口口 |----|
30
②①口口 |①---|
口口口口 |----|
口口口口 |②---|
口口口口 |----|
31
口口口口 |①---|
①②口口 |----|
口口口口 |②---|
口口口口 |----|
32
口口口口 |①---|
口口口口 |----|
②①口口 |②---|
口口口口 |----|
33
口口口口 |①---|
口口口口 |----|
口口口口 |②---|
①②口口 |----|
34
口口口口 |①---|
口口口口 |----|
口口口口 |②---|
口②①口 |----|
35
口口口口 |①---|
口口口口 |----|
口②①口 |②---|
口口口口 |----|
36
口口口口 |①---|
口②①口 |----|
口口口口 |②---|
口口口口 |----|
37
口②①口 |①---|
口口口口 |----|
口口口口 |②---|
口口口口 |----|
38
②口口① |①---|
口口口口 |----|
口口口口 |②---|
口口口口 |----|
39
口口口口 |①---|
②口口① |----|
口口口口 |②---|
口口口口 |----|
40
口口口口 |①---|
口口口口 |----|
②口口① |②---|
口口口口 |----|
41
口口口口 |①---|
口①①口 |----|
口②②口 |②---|
口口口口 |----|
42
口口口口 |①---|
口口口口 |----|
口口口口 |②---|
口②①口 |----|
43
口口口口 |①---|
口口口口 |----|
口②①口 |②---|
口口口口 |----|
44
口口口口 |①---|
口②①口 |----|
口口口口 |②---|
口口口口 |----|
45
口②①口 |①---|
口口口口 |----|
口口口口 |②---|
口口口口 |----|
46
②口口① |①---|
口口口口 |----|
口口口口 |②---|
口口口口 |----|
47
口口口口 |①---|
②口口① |----|
口口口口 |②---|
口口口口 |----|
48
口口口口 |①---|
口口口口 |----|
②口口① |②---|
口口口口 |----|
49
口口口口 |①---|
口口口口 |----|
口口口口 |②---|
②口口① |----|
50
口口口口 |①---|
口口口口 |----|
口①①口 |----|
口口口口 |----|
51
口口口口 |①---|
口口①口 |----|
口口口口 |----|
口口口口 |----|
52
口口口口 |①---|
口①口口 |----|
口口口口 |----|
口口口口 |----|
53
口口①口 |①---|
口口口口 |----|
口口口口 |----|
口口口口 |----|
54
口①口口 |①---|
口口口口 |----|
口口口口 |----|
口口口口 |----|
55
口口口口 |①---|
口口①口 |----|
口口口口 |----|
口口口口 |----|
56
口口口口 |①---|
口①口口 |----|
口口口口 |----|
口口口口 |----|
57
口口口口 |①---|
口口口口 |----|
口口①口 |----|
口口口口 |----|
58
口口口口 |①---|
口口口口 |----|
口①口口 |----|
口口口口 |----|
59
口口口口 |①---|
口口口口 |----|
口口口口 |②---|
口②①口 |----|
60
口口口口 |①---|
口口口口 |----|
口口口口 |②---|
口②①口 |----|
61
口口口口 |①---|
口口口口 |----|
口②①口 |②---|
口口口口 |----|
62
口口口口 |①---|
口②①口 |----|
口口口口 |②---|
口口口口 |----|
63
口②①口 |①---|
口口口口 |----|
口口口口 |②---|
口口口口 |----|
64
②口口① |①---|
口口口口 |----|
口口口口 |②---|
口口口口 |----|
65
口口口口 |①---|
②口口① |----|
口口口口 |②---|
口口口口 |----|
66
口口口口 |①---|
口口口口 |----|
②口口① |②---|
口口口口 |----|
67
口口口口 |①---|
口①①口 |----|
口②②口 |②---|
口口口口 |----|
68
口口口口 |①---|
口口口口 |----|
口口口口 |②---|
口②①口 |----|
69
口口口口 |①---|
口口口口 |----|
口②①口 |②---|
口口口口 |----|
70
口口口口 |①---|
口②①口 |----|
口口口口 |②---|
口口口口 |----|
71
口②①口 |①---|
口口口口 |----|
口口口口 |②---|
口口口口 |----|
72
②口口① |①---|
口口口口 |----|
口口口口 |②---|
口口口口 |----|
73
口口口口 |①---|
②口口① |----|
口口口口 |②---|
口口口口 |----|
74
口口口口 |①---|
口口口口 |----|
②口口① |②---|
口口口口 |----|
75
口口口口 |①---|
口口口口 |----|
口口口口 |②---|
②口口① |----|
76
口口口口 |①---|
口口口口 |----|
口口口② |②---|
口口口① |----|
77
口口口② |①---|
口口口① |----|
口口口口 |②---|
口口口口 |----|
78
口口①口 |①---|
口口②口 |----|
口口口口 |②---|
口口口口 |----|
79
口口口口 |①---|
口口口口 |----|
口口①口 |②---|
口口②口 |----|
80
口口口口 |①---|
口口口口 |----|
口②口口 |②---|
口①口口 |----|
81
口②口口 |①---|
口①口口 |----|
口口口口 |②---|
口口口口 |----|
82
①口口口 |①---|
②口口口 |----|
口口口口 |②---|
口口口口 |----|
83
口口口口 |①---|
口口口口 |----|
①口口口 |②---|
②口口口 |----|
84
口口口口 |①---|
口①①口 |----|
口口口口 |----|
口口口口 |----|

不確定度: 0

最終更新:2014年08月01日 22:41