ギャグ
星野源

BASIC

Level: 3
BPM: 163
Notes: 199

1
口口口口 |----|
口口口口 |----|
口口口口 |----|
口口口口 |----|
2
口②①口 |①---|
口④③口 |②---|
口口口口 |③---|
口口口口 |④---|
3
口口口口 |①---|
③口口③ |----|
②①①② |②---|
口口口口 |③---|
4
口口口口 |①---|
口口口口 |②---|
口④③口 |③---|
口②①口 |④---|
5
口口口口 |①---|
②①①② |----|
③口口③ |②---|
口口口口 |③---|

BPM: 160
6
口口口口 |①---|
口口②口 |----|
口口①口 |②---|
口口口口 |----|

BPM: 164
7
口口口口 |①---|
口①口口 |----|
口②口口 |②---|
口口口口 |----|
8
口口口口 |①---|
口口②口 |----|
口口①口 |②---|
口口口口 |----|
9
②①①② |①---|
口口口口 |----|
口口口口 |②---|
口口口口 |----|

BPM: 163
10
口口口口 |①---|
口②口口 |----|
口①口口 |②---|
口口口口 |----|
11
口口口口 |①---|
口口①口 |----|
口口②口 |②---|
口口口口 |----|
12
口口口口 |①---|
口②口口 |----|
口①口口 |②---|
口口口口 |----|
13
②①①② |①---|
口口口口 |----|
口口口口 |②---|
口口口口 |----|
14
口①①口 |①---|
口口口口 |----|
口口口口 |----|
口口口口 |----|
15
口口口口 |①---|
口①①口 |----|
口口口口 |----|
口口口口 |----|
16
口口口口 |①---|
口口口口 |----|
口口口口 |----|
口①①口 |----|
17
口口口口 |①---|
口口口口 |----|
口①①口 |----|
口口口口 |----|
18
①口口① |①---|
口口口口 |----|
口口口口 |----|
口口口口 |----|
19
口口口口 |①---|
①口口① |----|
口口口口 |----|
口口口口 |----|
20
口口口口 |①---|
口口口口 |----|
口口口口 |----|
①口口① |----|
21
口口口口 |①---|
口口口口 |----|
①口口① |----|
口口口口 |----|
22
口①①口 |①---|
口②口口 |----|
口口口口 |②---|
口口口口 |----|
23
口口口口 |①---|
口口口口 |----|
口口①口 |②---|
口口口② |----|
24
口口口口 |①---|
口口口口 |----|
口②口口 |②---|
口①①口 |----|
25
口口口② |①---|
口口①口 |----|
口口口口 |②---|
口口口口 |----|
26
口①①口 |①---|
口口②口 |----|
口口口口 |②---|
口口口口 |----|
27
口口口口 |①---|
口口口口 |----|
口①口口 |②---|
②口口口 |----|
28
口口口口 |①---|
口口口口 |----|
口②②口 |②---|
口①①口 |----|
29
口口口口 |①---|
口①①口 |----|
口口口口 |----|
口口口口 |----|
30
口①①② |①---|
口口口口 |----|
口口口口 |②---|
口口口口 |----|
31
口口口口 |①---|
②①①口 |----|
口口口口 |②---|
口口口口 |----|
32
口口口口 |①---|
口口口口 |----|
口①①② |②---|
口口口口 |----|
33
口口口口 |①---|
口口口口 |----|
口口口口 |②---|
②①①口 |----|
34
口口④口 |①---|
口口③口 |②---|
口口②口 |③---|
口口①口 |④---|
35
口①口口 |①---|
口②口口 |②---|
口③口口 |③---|
口④口口 |④---|
36
口口口口 |①---|
口口口④ |②---|
口口口③ |③---|
口口①② |④---|
37
口口口口 |①---|
③②①口 |②---|
④口口口 |③---|
口口口口 |④---|
38
口口口口 |①---|
口口口④ |②---|
口①②③ |③---|
口口口口 |④---|
39
口①①口 |①---|
口②②口 |----|
口口口口 |②---|
口口口口 |----|
40
口口口口 |①---|
口口口口 |②---|
口④口③ |③---|
口②口① |④---|
41
口④口③ |①---|
口②口① |②---|
口口口口 |③---|
口口口口 |④---|
42
②口①口 |①---|
④口③口 |②---|
口口口口 |③---|
口口口口 |④---|
43
口口口口 |①---|
口口口口 |----|
口①①口 |②---|
口②②口 |----|
44
口口口口 |①---|
口口口口 |②---|
③口④口 |③---|
①口②口 |④---|
45
③口④口 |①---|
①口②口 |②---|
口口口口 |③---|
口口口口 |④---|
46
口①口② |①---|
口③口④ |②---|
口口口口 |③---|
口口口口 |④---|
47
口口口口 |①---|
口口口口 |----|
口①①口 |②---|
口②②口 |----|
48
口口口口 |①---|
口口口口 |②---|
④③②① |③---|
口口口口 |④---|
49
口口口口 |①---|
①②③④ |②---|
口口口口 |③---|
口口口口 |④---|
50
④③②① |①---|
口口口口 |②---|
口口口口 |③---|
口口口口 |④---|
51
口口口口 |①---|
口①①口 |----|
口②②口 |②---|
口口口口 |----|
52
④口口④ |①---|
③口口③ |②---|
②口口② |③---|
①口口① |④---|
53
口①①口 |①---|
口②②口 |②---|
口③③口 |③---|
口④④口 |④---|
54
口口口口 |①---|
口口口口 |②---|
④口口③ |③---|
②口口① |④---|
55
口口口口 |①---|
①②②① |----|
口③③口 |②---|
口口口口 |③---|
56
②口口① |①---|
④口口③ |②---|
口口口口 |③---|
口口口口 |④---|
57
口口口口 |①---|
口口口口 |----|
①②②① |②---|
口口口口

BPM: 153
口口口口
口③③口
口口口口
口口口口 |③---|

BPM: 105
58
①口口① |①---|
口口口口 |----|
口口口口 |----|
口口口口 |----|

不確定度: 0

最終更新:2014年08月01日 22:40